Ссылка на приватное зеркало нашего сайта всего за 1$. Внимание количество ограничено!!!

2 сезон

iTunes

1 сезон

1

2 сезон

2 сезон

iTunes

1 сезон

RePack

30

Ultimate

ВАЖНО

ИГРА 18+

pack

RePack

MK11
pack

Забери бонус

RePack

jed

!!Акция!!

Alien_Rage

RePack

fifa19

RePack

Assassins Creed: Odyssey

RePack

NEED FOR SPEED™ PAYBACK

4 сезон

9 сезон

Бесстыжие 9 сезон

Все сериалы

все сериалы на PB.wtf

RePack

FAR CRY 5
  

Папаши / Dads (1 сезон 1-18 серия из 18) (Марк Сендроуски, Джерри Коэн, Тед Уасс)[2013-2014, США, семейная комедия, WEB-DLRip] / MVO Несмертельное оружие pb.wtf

Папаши через торрент pb.wtf

Размер: 6.15 GB | Добавлен: 6 лет 6 мес. назад | Торрент скачан:23 раза
Скачать  

26-05-2014 19:39 Папаши Скачать торрент  

Папаши (сериал) / Dads
Год выпуска: 2013-2014 (1 сезон)
Страна: США
Жанр: семейная комедия
Продолжительность: 17 X ~00:20:00
Перевод: Профессиональный (многоголосый, закадровый) (Несмертельное оружие)
Субтитры: Нет
Режиссер: Марк Сендроуски / Mark Cendrowski, Джерри Коэн / Gerry Cohen, Тед Уасс / Ted Wass
В ролях: Сет Грин (Eli Sachs), Джованни Рибизи (Warner Whittemore), Мартин Мулл (Crawford Whittemore), Питер Ригерт (David Sachs), Бренда Сонг (Veronica), Тонита Кастро (Edna), Ванесса Лаше (Camilla Whittemore), Дерек Бланкеншип (Bartender), Кристофер Дарга (Federal Agent), Стивен Сокс (Painted Chest Man), Сара Дюмон (Hot Girl), Amanda Tudesco (Attractive Girl)
Описание:
История о двух друзьях детства, которые уже вроде бы не молодые и довольно успешные. Но однажды в их жизни все переворачивается, когда к ним приезжают их отцы...
Рейтинг
kinopoisk.ru: 6.249 (367)
imdb.com: 5.40 (4431)
Качество: WEB-DLRip
Формат: AVI
Видео кодек: XviD
Аудио кодек: AC3
Видео: XviD, 720x400 (16:9), 1817 kbps, 23,976 fps, 0,263 bpp
Аудио №1: AC3 / 2.0 / 48 kHz / 192 kbps / 16 bit
Аудио №2: AC3 / 2.0 / 48 kHz / 192 kbps / 16 bit
General
Complete name :...\Dads.S01.WEB-DLRip\Dads.S01E01.Dual.WEB-DLRip.[Nesmertelnoe.oruzhie].avi
Format : AVI
Format/Info : Audio Video Interleave
File size : 350 MiB
Duration : 22mn 5s
Overall bit rate : 2 215 Kbps
Movie name : Папаши / Сезон: 1 / Эпизод: 01 - Пилот
Director : ANTipiGo
Genre : Comedy
Writing application : VirtualDubMod 1.5.10.2 (build 2540/release)
Original source form/Name : TV-Serie
Copyright : Творческое объединение "Несмертельное оружие"

Video
ID : 0
Format : MPEG-4 Visual
Format profile : Advanced Simple@L5
Format settings, BVOP : 2
Format settings, QPel : No
Format settings, GMC : No warppoints
Format settings, Matrix : Default (MPEG)
Codec ID : XVID
Codec ID/Hint : XviD
Duration : 22mn 5s
Bit rate : 1 817 Kbps
Width : 720 pixels
Height : 400 pixels
Display aspect ratio : 16:9
Frame rate : 23.976 fps
Color space : YUV
Chroma subsampling : 4:2:0
Bit depth : 8 bits
Scan type : Progressive
Compression mode : Lossy
Bits/(Pixel*Frame) : 0.263
Stream size : 287 MiB (82%)
Writing library : XviD 1.2.1 (UTC 2008-12-04)

Audio #1
ID : 1
Format : AC-3
Format/Info : Audio Coding 3
Mode extension : CM (complete main)
Codec ID : 2000
Duration : 22mn 5s
Bit rate mode : Constant
Bit rate : 192 Kbps
Channel(s) : 2 channels
Channel positions : Front: L R
Sampling rate : 48.0 KHz
Bit depth : 16 bits
Compression mode : Lossy
Stream size : 30.3 MiB (9%)
Alignment : Split accross interleaves
Interleave, duration : 42 ms (1.00 video frame)
Interleave, preload duration : 500 ms
Title : [RUS] MVO (Несмертельное оружие)

Audio #2
ID : 2
Format : AC-3
Format/Info : Audio Coding 3
Mode extension : CM (complete main)
Codec ID : 2000
Duration : 22mn 5s
Bit rate mode : Constant
Bit rate : 192 Kbps
Channel(s) : 2 channels
Channel positions : Front: L R
Sampling rate : 48.0 KHz
Bit depth : 16 bits
Compression mode : Lossy
Stream size : 30.3 MiB (9%)
Alignment : Split accross interleaves
Interleave, duration : 42 ms (1.00 video frame)
Interleave, preload duration : 500 ms
Title : [ENG] Original
скриншот   скриншот   скриншот   скриншот   скриншот   скриншот   скриншот   скриншот   скриншот   скриншот  
скриншот   скриншот   скриншот   скриншот   скриншот   скриншот   скриншот  
скриншот   скриншот   скриншот   скриншот   скриншот  
pb.wtf



Скачать Папаши через торрент http://pic.kartinco.top/new/img/2014-05/27/s78m8dqs78hscah28oix1b0cj.jpg Скачать фильм Папаши через торрент бесплантно в хорошем качестве Описание: История о двух друзьях детства, которые уже вроде бы не молодые и довольно успешные. Но однажды в их жизни все переворачивается, ... 10 10 2
Info! Серебряная раздача, засчитывается только 50% скачанного.
Торрент: Зарегистрирован [2014-05-26 19:39] · скачан: 23 раз
Статус: √ проверено
Размер: 6.15 GB
Как cкачать? Как скачать Папаши через торрент | qTorrent

28-11-2019 20:33  

Отключить всю рекламу на сайте

28-05-2014 14:56 Папаши Скачать торрент  

konki писал(а):

[qpost=undefined]
Видео кодек: XviD/AVC
Аудио кодек: AC3/MP3/DTS

pb.wtf



    Дорогой пользователь! Огромная просьба, поблагодарите релизера, оцените раздачу и оставьте свои комментарий, если Вы скачали Папаши через торрент бесплатно! Внесите свою лепту в развитие PiratBit!
    Комментировать посты могут только пользователи прошедшие не сложную регистрацию
    Показать сообщения:    

    Папаши через торрент
    Скачать бесплатно Папаши
    Папаши скачать торрент
    Папаши смотреть онлайн
    Cкачать фильм Папаши бесплатно
    Папаши скачать торрент в хорошем качестве
    Папаши смотреть онлайн бесплатно в хорошем качестве


    Вы не можете начинать темы
    Вы не можете отвечать на сообщения
    Вы не можете редактировать свои сообщения
    Вы не можете удалять свои сообщения
    Вы не можете голосовать в опросах
    Вы не можете прикреплять файлы к сообщениям
    Вы можете скачивать файлы