Всегда рабочее зеркало без VPN и Proxy просто перед .vidak.icu напиши любое слово или цифру, Пример http://7jpx.vidak.icu

MVO

2 сезон

2 сезон

1

1 сезон

iTunes

2 сезон

13

1 сезон

Deluxe

pack

Рекомендуем

Пиратка

30

ВАЖНО

RePack

MK11

RePack

jed

RePack

fifa19

RePack

RDR2

RePack

NEED FOR SPEED™ PAYBACK

Кинопоиск HD

6 сезон

 Острые козырьки 6 сезон

Все сериалы

все сериалы на PB.wtf

RePack

FAR CRY 5

Anonymous, нам критически не хватает 5601 руб. на оплату серверов и переферии за Апрель, помоги нам пожалуйста, вся надежда только на тебя. В благодарность мы отключим тебе всю рекламу на сайте!

×
  
Magnet ссылка

Последний рубеж / Homefront (Гэри Фледер / Gary Fleder) [2013, боевик, криминал, BD-Remux, Д [Дубляж - ["Мосфильм мастер"] pb.wtf

Последний рубеж через торрент pb.wtf

Размер: 23.56 GB | Добавлен: 7 лет 11 мес. назад | Торрент скачан:19 раз
Смотреть онлайн Последний рубеж | Скачать    Ребята, помогите собрать деньги на оплату серверов!!!

27-05-2014 08:14 Последний рубеж Скачать торрент  

Последний рубеж / Homefront
«На что ты готов ради защиты своей семьи?»



Год выпуска: 2013
Страна: США
Жанр: боевик, криминал
Продолжительность: 01:40:34
Перевод: [Дубляж - ["Мосфильм мастер"]
Субтитры: Русские (PGS), Английские (PGS)


Режиссер:
  • Гэри Фледер / Gary Fleder
В ролях:
  • Джейсон Стэйтем (Phil Broker), Джеймс Франко (Morgan «Gator» Bodine), Изабела Видович (Maddy Broker), Вайнона Райдер (Sheryl Marie Mott), Кейт Босворт (Cassie Bodine Klum), Клэнси Браун (Sheriff Keith Rodrigue), Рашель Лефевр (Susan Hetch), Омар Бенсон Миллер (Teedo), Маркус Хестер (Jimmy Klum), Фрэнк Грилло (Cyrus Hanks), Чак Зито («Danny T» Turrie), Прюитт Тэйлор Винс (Werks)
Описание: Фил Брокер - бывший агент из отдела борьбы с наркотиками. Фил переезжает в небольшой город вместе с семьей в надежде забыть прошлое. Но он узнает, что город только со стороны кажется тихим и спокойным местом, на самом деле он кишит насилием, наркотиками, а всем этим заправляет злодей по кличке Аллигатор...


Качество: BD-Remux
Формат: MKV
Видео кодек: AVC
Аудио кодек: AC3
Видео: AVC, 1920x1080 (16:9), 30946 kbps, 23,976 fps, 0,622 bpp
Аудио №1: русский / AC3 / 5.1 / 48 kHz / 640 kbps / 16 bit |Дублированный|
Аудио №2: русский / AC3 / 5.1 / 48 kHz / 640 kbps / 16 bit |А.Гаврилов|
Аудио №3: английский / AC3 / 5.1 / 48 kHz / 640 kbps / 16 bit


Код:

Общее
Уникальный идентификатор                 : 195332689292275380717138271756323487258 (0x92F3B521827E944BAEB1DAAB21B57E1A)
Полное имя                               : I:\Последний рубеж (2013) BD-Remux.mkv
Формат                                   : Matroska
Версия формата                           : Version 4 / Version 2
Размер файла                             : 23,6 Гбайт
Продолжительность                        : 1 ч. 40 м.
Режим общего битрейта                    : Переменный
Общий поток                              : 33,5 Мбит/сек
Дата кодирования                         : UTC 2014-05-27 07:42:57
Программа кодирования                    : mkvmerge v6.6.0 ('The Edge Of The In Between') built on Dec  1 2013 17:55:00
Библиотека кодирования                   : libebml v1.3.0 + libmatroska v1.4.1
Attachment                               : Yes

Видео
Идентификатор                            : 1
Формат                                   : AVC
Формат/Информация                        : Advanced Video Codec
Профиль формата                          : High@L4.1
Параметр CABAC формата                   : Да
Параметр ReFrames формата                : 4 кадра
Идентификатор кодека                     : V_MPEG4/ISO/AVC
Продолжительность                        : 1 ч. 40 м.
Вид битрейта                             : Переменный
Битрейт                                  : 30,9 Мбит/сек
Максимальный битрейт                     : 35,0 Мбит/сек
Ширина                                   : 1920 пикселей
Высота                                   : 1080 пикселей
Соотношение сторон                       : 16:9
Режим частоты кадров                     : Постоянный
Частота кадров                           : 23,976 кадра/сек
Цветовое пространство                    : YUV
Субдискретизация насыщенности            : 4:2:0
Битовая глубина                          : 8 бит
Тип развёртки                            : Прогрессивная
Бит/(Пиксели*Кадры)                      : 0.622
Размер потока                            : 21,7 Гбайт (92%)
Default                                  : Да
Forced                                   : Нет

Аудио #1
Идентификатор                            : 2
Формат                                   : AC-3
Формат/Информация                        : Audio Coding 3
Расширение режима                        : CM (complete main)
Параметр Endianness формата              : Big
Идентификатор кодека                     : A_AC3
Продолжительность                        : 1 ч. 40 м.
Вид битрейта                             : Постоянный
Битрейт                                  : 640 Кбит/сек
Каналы                                   : 6 каналов
Расположение каналов                     : Front: L C R, Side: L R, LFE
Частота                                  : 48,0 КГц
Битовая глубина                          : 16 бит
Метод сжатия                             : С потерями
Размер потока                            : 460 Мбайт (2%)
Заголовок                                : Дублированный
Язык                                     : Russian
Default                                  : Да
Forced                                   : Нет

Аудио #2
Идентификатор                            : 3
Формат                                   : AC-3
Формат/Информация                        : Audio Coding 3
Расширение режима                        : CM (complete main)
Параметр Endianness формата              : Big
Идентификатор кодека                     : A_AC3
Продолжительность                        : 1 ч. 40 м.
Вид битрейта                             : Постоянный
Битрейт                                  : 640 Кбит/сек
Каналы                                   : 6 каналов
Расположение каналов                     : Front: L C R, Side: L R, LFE
Частота                                  : 48,0 КГц
Битовая глубина                          : 16 бит
Метод сжатия                             : С потерями
Размер потока                            : 460 Мбайт (2%)
Заголовок                                : А.Гаврилов
Язык                                     : Russian
Default                                  : Нет
Forced                                   : Нет

Аудио #3
Идентификатор                            : 4
Формат                                   : AC-3
Формат/Информация                        : Audio Coding 3
Расширение режима                        : CM (complete main)
Параметр Endianness формата              : Big
Идентификатор кодека                     : A_AC3
Продолжительность                        : 1 ч. 40 м.
Вид битрейта                             : Постоянный
Битрейт                                  : 640 Кбит/сек
Каналы                                   : 6 каналов
Расположение каналов                     : Front: L C R, Side: L R, LFE
Частота                                  : 48,0 КГц
Битовая глубина                          : 16 бит
Метод сжатия                             : С потерями
Размер потока                            : 460 Мбайт (2%)
Заголовок                                : Оригинал
Язык                                     : English
Default                                  : Нет
Forced                                   : Нет

Текст #1
Идентификатор                            : 5
Формат                                   : PGS
Режим смешивания                         : zlib
Идентификатор кодека                     : S_HDMV/PGS
Идентификатор кодека/Информация          : The same subtitle format used on BDs/HD-DVDs
Язык                                     : Russian
Default                                  : Нет
Forced                                   : Нет

Текст #2
Идентификатор                            : 6
Формат                                   : PGS
Режим смешивания                         : zlib
Идентификатор кодека                     : S_HDMV/PGS
Идентификатор кодека/Информация          : The same subtitle format used on BDs/HD-DVDs
Язык                                     : English
Default                                  : Нет
Forced                                   : Нет

Меню
00:00:00.000                             : en:00:00:00.000
00:04:55.461                             : en:00:04:55.461
00:09:14.095                             : en:00:09:14.095
00:14:55.853                             : en:00:14:55.853
00:21:42.426                             : en:00:21:42.426
00:25:03.001                             : en:00:25:03.001
00:31:23.214                             : en:00:31:23.214
00:34:04.000                             : en:00:34:04.000
00:39:01.088                             : en:00:39:01.088
00:45:47.995                             : en:00:45:47.995
00:49:29.257                             : en:00:49:29.257
00:55:16.479                             : en:00:55:16.479
01:01:55.420                             : en:01:01:55.420
01:08:56.173                             : en:01:08:56.173
01:12:27.634                             : en:01:12:27.634
01:16:00.973                             : en:01:16:00.973
01:19:15.250                             : en:01:19:15.250
01:24:02.620                             : en:01:24:02.620
01:29:39.123                             : en:01:29:39.123
01:35:16.961                             : en:01:35:16.961

скриншот   скриншот   скриншот   скриншот   pb.wtf



Скачать Последний рубеж через торрент http://i62.fastpic.ru/big/2014/0527/80/789001cb57724ba3211c5771e8d97780.png Скачать, смотреть онлайн Последний рубеж бесплантно в хорошем качестве Описание: Фил Брокер - бывший агент из отдела борьбы с наркотиками. Фил переезжает в небольшой город вместе с семьей в надежде забыть ... 10 10 4
Info! Золотая раздача, скачанное не засчитывается.
Торрент: Зарегистрирован [2014-05-27 08:14] · скачан: 19 раз
Статус: √ проверено
Размер: 23.56 GB
Как cкачать? Как скачать Последний рубеж через торрент | UTorrent

% Раздел Тема Автор DL S | L
Фильмы (DVD фильмы) [ 5.22 GB ] Последний рубеж / Homefront [2013 DVD9] R5 voovaz Скачать
1 | 0
Фильмы 2013 [DVDrip, WEB-DLRip, HDrip] [ 1.45 GB ] Последний рубеж / Homefront [2013 BDRip / DUB Ворон Скачать
1 | 0
Фильмы [HD 720p, 1080p] (Хороший звук DUB, MVO) [ 12.67 GB ] Последний рубеж / Homefront [2013 BDRip 1080p [ - ["Мосфильм мастер"] Seedtank Скачать
1 | 0
Фильмы (Blu-ray, BD-Remux, HDDVD) [ 37.26 GB ] Последний рубеж / Homefront [2013 Blu-ray [ - ["Мосфильм мастер"] Бумер Скачать
1 | 0
Фильмы 2013 [DVDrip, WEB-DLRip, HDrip] [ 1.46 GB ] Последний рубеж / Homefront [2013 HDRip-AVC] [ - ["Мосфильм мастер"]] От R.G. PiratFilms White Smoke Скачать
1 | 0
Фильмы 2013 [DVDrip, WEB-DLRip, HDrip] [ 1.46 GB ] Последний рубеж / Homefront [2013 BDRip-AVC] [ - ["Мосфильм мастер"] potroks Скачать
1 | 0
Фильмы [HD 720p, 1080p] (Хороший звук DUB, MVO) [ 5.77 GB ] Последний рубеж / Homefront [2013 BDRip 720p] [ - ["Мосфильм мастер"] potroks Скачать
1 | 0


Последний раз редактировалось: Seedtank (2014-05-27 11:45), всего редактировалось 3 раз(а)

28-11-2019 20:33  

Отключить всю рекламу на сайте

27-05-2014 08:15 Последний рубеж Скачать торрент  

*Seedtank Edition
Релиз для настоящих коллекционеров.
Вшита обложка, перекодирован кодек в АС3 для воспроизводимости на любых медиаплеерах.
pb.wtf



    Дорогой пользователь! Огромная просьба, поблагодарите релизера, оцените раздачу и оставьте свои комментарий, если Вы скачали Последний рубеж через торрент бесплатно!
    Комментировать посты могут только пользователи прошедшие не сложную регистрацию
    Показать сообщения:    

    Последний рубеж через торрент
    Скачать бесплатно Последний рубеж
    Последний рубеж скачать торрент
    Последний рубеж смотреть онлайн
    Cкачать фильм Последний рубеж бесплатно
    Последний рубеж скачать торрент в хорошем качестве
    Последний рубеж смотреть онлайн бесплатно в хорошем качестве


    Вы не можете начинать темы
    Вы не можете отвечать на сообщения
    Вы не можете редактировать свои сообщения
    Вы не можете удалять свои сообщения
    Вы не можете голосовать в опросах
    Вы не можете прикреплять файлы к сообщениям
    Вы можете скачивать файлы