Всегда рабочее зеркало без VPN и Proxy просто перед .vidak.icu напиши любое слово или цифру, Пример http://dk3d.vidak.icu

MVO

MVO

1 сезон

1

1 сезон

iTunes

1 сезон

13

1 сезон

Deluxe

pack

Рекомендуем

Repack

30

ВАЖНО

RePack

MK11

RePack

jed

RePack

fifa19

RePack

RDR2

RePack

NEED FOR SPEED™ PAYBACK

Кинопоиск HD

6 сезон

 Острые козырьки 6 сезон

Все сериалы

все сериалы на PB.wtf

RePack

FAR CRY 5
  
Magnet ссылка

(Heavy / Hard Rock) Lawless - Rock Savage - 2013, FLAC (image + .cue), lossless pb.wtf

через торрент pb.wtf

Размер: 407 MB | Добавлен: 8 лет 2 мес. назад | Торрент скачан:16 раз
Смотреть онлайн | Скачать    Ребята, помогите собрать деньги на оплату серверов!!!

27-05-2014 08:36 Скачать торрент  


Lawless - Rock Savage
Страна: UK
Страна производитель диска: Italy
Жанр:HeavyMetal, Hard Rock
Год выпуска: 2013
Издатель (лейбл): Scarlet Records
Номер по каталогу: SC 232-2
Формат: FLAC
Тип рипа: Image+.cue
Битрейт аудио: lossless
Продолжительность: 00:55:05



01. Heavy Metal Heaven (05:14)
02. Black Widow Ladies (05:04)
03. F.O.A.D. (04:45)
04. Misery (05:03)
05. SOS (04:56)
06. Rock 'n' Roll City (04:59)
07. Step In (04:02)
08. Scream (05:25)
09. Pretender (04:02)
10. Where Heroes Fall (06:21)
11. Metal Time (05:08)


Код:

Exact Audio Copy V1.0 beta 3 from 29. August 2011

EAC extraction logfile from 24. August 2013, 20:58

Lawless / Rock Savage (ESM255)

Used drive  : MATSHITABD-CMB UJ242AS   Adapter: 0  ID: 1

Read mode               : Secure
Utilize accurate stream : Yes
Defeat audio cache      : Yes
Make use of C2 pointers : No

Read offset correction                      : 103
Overread into Lead-In and Lead-Out          : No
Fill up missing offset samples with silence : Yes
Delete leading and trailing silent blocks   : No
Null samples used in CRC calculations       : Yes
Used interface                              : Installed external ASPI interface

Used output format              : User Defined Encoder
Selected bitrate                : 1024 kBit/s
Quality                         : High
Add ID3 tag                     : Yes
Command line compressor         : C:\Program Files (x86)\Exact Audio Copy\Flac\flac.exe
Additional command line options : -V -8 -T "Date=%year%" -T "Genre=%genre%" %source%

TOC of the extracted CD

     Track |   Start  |  Length  | Start sector | End sector
    ---------------------------------------------------------
        1  |  0:00.00 |  5:14.31 |         0    |    23580
        2  |  5:14.31 |  5:04.40 |     23581    |    46420
        3  | 10:18.71 |  4:45.40 |     46421    |    67835
        4  | 15:04.36 |  5:03.57 |     67836    |    90617
        5  | 20:08.18 |  4:56.71 |     90618    |   112888
        6  | 25:05.14 |  4:59.25 |    112889    |   135338
        7  | 30:04.39 |  4:02.39 |    135339    |   153527
        8  | 34:07.03 |  5:25.27 |    153528    |   177929
        9  | 39:32.30 |  4:02.51 |    177930    |   196130
       10  | 43:35.06 |  6:21.66 |    196131    |   224771
       11  | 49:56.72 |  5:08.15 |    224772    |   247886

Range status and errors

Selected range

     Filename C:\EACrip\Lawless - Rock Savage (ESM255).wav

     Peak level 98.8 %
     Extraction speed 2.5 X
     Range quality 100.0 %
     Test CRC E2FF1AA7
     Copy CRC E2FF1AA7
     Copy OK

No errors occurred

AccurateRip summary

Track  1  not present in database
Track  2  not present in database
Track  3  not present in database
Track  4  not present in database
Track  5  not present in database
Track  6  not present in database
Track  7  not present in database
Track  8  not present in database
Track  9  not present in database
Track 10  not present in database
Track 11  not present in database

None of the tracks are present in the AccurateRip database

End of status report

Код:

REM GENRE "Heavy Metal"
REM DATE 2013
REM DISCID 8E0CE90B
REM COMMENT "ExactAudioCopy v1.0b3"
PERFORMER "Lawless"
TITLE "Rock Savage (ESM255)"
FILE "Lawless - Rock Savage (ESM255).flac" WAVE
  TRACK 01 AUDIO
    TITLE "Heavy Metal Heaven"
    PERFORMER "Lawless"
    ISRC GBT5D1102551
    INDEX 01 00:00:00
  TRACK 02 AUDIO
    TITLE "Black Widow Ladies"
    PERFORMER "Lawless"
    ISRC GBT5D1102552
    INDEX 01 05:14:31
  TRACK 03 AUDIO
    TITLE "F.O.A.D."
    PERFORMER "Lawless"
    ISRC GBT5D1102553
    INDEX 01 10:18:71
  TRACK 04 AUDIO
    TITLE "Misery"
    PERFORMER "Lawless"
    ISRC GBT5D1102554
    INDEX 01 15:04:36
  TRACK 05 AUDIO
    TITLE "SOS"
    PERFORMER "Lawless"
    ISRC GBT5D1102555
    INDEX 01 20:08:18
  TRACK 06 AUDIO
    TITLE "Rock 'n' Roll City"
    PERFORMER "Lawless"
    ISRC GBT5D1102556
    INDEX 01 25:05:14
  TRACK 07 AUDIO
    TITLE "Step In"
    PERFORMER "Lawless"
    ISRC GBT5D1102557
    INDEX 01 30:04:39
  TRACK 08 AUDIO
    TITLE "Scream"
    PERFORMER "Lawless"
    ISRC GBT5D1102558
    INDEX 01 34:07:03
  TRACK 09 AUDIO
    TITLE "Pretender"
    PERFORMER "Lawless"
    ISRC GBT5D1102559
    INDEX 01 39:32:30
  TRACK 10 AUDIO
    TITLE "Where Heroes Fall"
    PERFORMER "Lawless"
    ISRC GBT5D1125510
    INDEX 01 43:35:06
  TRACK 11 AUDIO
    TITLE "Metal Time"
    PERFORMER "Lawless"
    ISRC GBT5D1125511
    INDEX 01 49:56:72

pb.wtf



Скачать через торрент http://www.tamecom1.com/urpic/images/yvemyr99wt9fq4bbwaa.png Скачать, смотреть онлайн бесплантно в хорошем качестве Год выпуска: 2013 Издатель (лейбл): Scarlet Records Номер по каталогу: SC 232-2 Формат: FLAC Тип рипа: Image+.cue Битрейт аудио: ... 9 10 5
Торрент: Зарегистрирован [2014-05-27 08:36] · скачан: 16 раз
Статус: √ проверено
Размер: 407 MB
Как cкачать? Как скачать через торрент | UTorrent

% Раздел Тема Автор DL S | L
Classic Rock & Hard Rock (lossless) [ 2.68 GB ] EVANESCENCE Дискография - 1998-2007 FLAC lossless ser_1985 Скачать
1 | 0
Eurodance, Technopop, Disco (lossless) [ 1.86 GB ] Dr. Alban Студийные альбомы - 5CD [FLAC lossless] tauras Скачать
1 | 0
Action FPS (1st Person) [ 8.89 GB ] Star Wars: The Force Unleashed - Ultimate Sith Edition [Lossless Repack RU/EN] от Druid =Чувак= Скачать
1 | 0
Архив (Alternative, Punk, Independent) [ 1.74 GB ] Breaking Benjamin - Дискография - 2001-2009 FLAC lossless King_IS_Back Скачать
1 | 0
Гоночные симуляторы [ 3.18 GB ] Дальнобойщик​и 3: Золотое Издание [Lossless Repack RU] от R.G. Catalyst roman3310i Скачать
1 | 1
Архив (Многоканальная музыка и собственные оцифровки) [ 405 MB ] Black Sabbath -Heaven & hell - 1980 DTS lossless staryirocker Скачать
1 | 1
RTS (стратегии в реальном времени) [ 4.21 GB ] Command & Conquer 4: Tiberian Twilight [Lossless RePackRUEA] Alex_Zeyn Скачать
2 | 0

28-11-2019 20:33  

Отключить вcю реклaмy на сайте

    Дорогой пользователь! Огромная просьба, поблагодарите релизера, оцените раздачу и оставьте свои комментарий, если Вы скачали через торрент бесплатно!
    Комментировать посты могут только пользователи прошедшие не сложную регистрацию
    Показать сообщения:    

    через торрент
    Скачать бесплатно
    скачать торрент
    смотреть онлайн
    Cкачать фильм бесплатно
    скачать торрент в хорошем качестве
    смотреть онлайн бесплатно в хорошем качестве


    Вы не можете начинать темы
    Вы не можете отвечать на сообщения
    Вы не можете редактировать свои сообщения
    Вы не можете удалять свои сообщения
    Вы не можете голосовать в опросах
    Вы не можете прикреплять файлы к сообщениям
    Вы можете скачивать файлы