Ссылка на приватное зеркало нашего сайта всего за 1$. Внимание количество ограничено!!!

2 сезон

iTunes

1 сезон

1

2 сезон

2 сезон

iTunes

1 сезон

RePack

30

Ultimate

ВАЖНО

ИГРА 18+

pack

RePack

MK11
pack

Забери бонус

RePack

jed

!!Акция!!

Alien_Rage

RePack

fifa19

RePack

Assassins Creed: Odyssey

RePack

NEED FOR SPEED™ PAYBACK

4 сезон

9 сезон

Бесстыжие 9 сезон

Все сериалы

все сериалы на PB.wtf

RePack

FAR CRY 5
  

Дом в конце улицы / House at the End of the Street (Марк Тондерай / Mark Tonderai) [2012, триллер, ужасы, BD-Remux, Дублированный, Лицензия] pb.wtf

Дом в конце улицы через торрент pb.wtf

Размер: 21.43 GB | Добавлен: 6 лет 6 мес. назад | Торрент скачан:10 раз
Скачать  

27-05-2014 09:23 Дом в конце улицы Скачать торрент  

Дом в конце улицы / House at the End of the Street
«Страх живёт по соседству»



Год выпуска: 2012
Страна: США, Канада
Жанр: триллер, ужасы
Продолжительность: 01:40:45
Перевод: Дублированный [Лицензия]
Субтитры: Русские (PGS), Английские (PGS)


Режиссер:
  • Марк Тондерай / Mark Tonderai
В ролях:
  • Дженнифер Лоуренс (Elissa), Макс Тириот (Ryan), Элизабет Шу (Sarah), Джил Беллоуз (Weaver), Ева Линк (Carrie Anne), Нолан Фанк (Tyler), Элли МакДональд (Jillian), Джордан Хэйес (Penn State Carrie Anne), Криста Бриджес (Mary Jacobson), Джеймс Томас (Ben Reynolds), Хейли Сисера (Caitlin), Крэйг Элдридж (Dan Gifford)
Описание: Переехав жить в небольшой провинциальный город, Сара и ее дочь еще не догадываются, что вскоре окажутся в эпицентре ужаса...


Качество: BD-Remux
Формат: MKV
Видео кодек: AVC
Аудио кодек: AC3
Видео: AVC, 1920x1080 (16:9), 28564 kbps, 23,976 fps, 0,575 bpp
Аудио №1: русский / AC3 / 5.1 / 48 kHz / 640 kbps / 16 bit
Аудио №2: английский / AC3 / 5.1 / 48 kHz / 640 kbps / 16 bit


Код:

General
Unique ID                                : 179065174591647513052484946716654172476 (0x86B6B2BB8D01D64B85F73A984B19F93C)
Complete name                            : I:\Дом в конце улицы (2012) [USA Transfer] BD-Remux.mkv
Format                                   : Matroska
Format version                           : Version 4 / Version 2
File size                                : 21.4 GiB
Duration                                 : 1h 40mn
Overall bit rate mode                    : Variable
Overall bit rate                         : 30.5 Mbps
Encoded date                             : UTC 2014-05-27 06:58:58
Writing application                      : mkvmerge v6.6.0 ('The Edge Of The In Between') built on Dec  1 2013 17:55:00
Writing library                          : libebml v1.3.0 + libmatroska v1.4.1
Attachment                               : Yes

Video
ID                                       : 1
Format                                   : AVC
Format/Info                              : Advanced Video Codec
Format profile                           : High@L4.1
Format settings, CABAC                   : Yes
Format settings, ReFrames                : 4 frames
Codec ID                                 : V_MPEG4/ISO/AVC
Duration                                 : 1h 40mn
Bit rate mode                            : Variable
Bit rate                                 : 28.6 Mbps
Maximum bit rate                         : 35.0 Mbps
Width                                    : 1 920 pixels
Height                                   : 1 080 pixels
Display aspect ratio                     : 16:9
Frame rate                               : 23.976 fps
Color space                              : YUV
Chroma subsampling                       : 4:2:0
Bit depth                                : 8 bits
Scan type                                : Progressive
Bits/(Pixel*Frame)                       : 0.575
Stream size                              : 20.1 GiB (94%)
Language                                 : English
Default                                  : Yes
Forced                                   : No

Audio #1
ID                                       : 2
Format                                   : AC-3
Format/Info                              : Audio Coding 3
Mode extension                           : CM (complete main)
Codec ID                                 : A_AC3
Duration                                 : 1h 40mn
Bit rate mode                            : Constant
Bit rate                                 : 640 Kbps
Channel(s)                               : 6 channels
Channel positions                        : Front: L C R, Side: L R, LFE
Sampling rate                            : 48.0 KHz
Bit depth                                : 16 bits
Compression mode                         : Lossy
Stream size                              : 461 MiB (2%)
Language                                 : Russian
Default                                  : Yes
Forced                                   : No

Audio #2
ID                                       : 3
Format                                   : AC-3
Format/Info                              : Audio Coding 3
Mode extension                           : CM (complete main)
Codec ID                                 : A_AC3
Duration                                 : 1h 40mn
Bit rate mode                            : Constant
Bit rate                                 : 640 Kbps
Channel(s)                               : 6 channels
Channel positions                        : Front: L C R, Side: L R, LFE
Sampling rate                            : 48.0 KHz
Bit depth                                : 16 bits
Compression mode                         : Lossy
Stream size                              : 461 MiB (2%)
Language                                 : English
Default                                  : No
Forced                                   : No

Text #1
ID                                       : 4
Format                                   : PGS
Muxing mode                              : zlib
Codec ID                                 : S_HDMV/PGS
Codec ID/Info                            : The same subtitle format used on BDs/HD-DVDs
Language                                 : Russian
Default                                  : No
Forced                                   : No

Text #2
ID                                       : 5
Format                                   : PGS
Muxing mode                              : zlib
Codec ID                                 : S_HDMV/PGS
Codec ID/Info                            : The same subtitle format used on BDs/HD-DVDs
Language                                 : English
Default                                  : No
Forced                                   : No

Menu
00:00:00.000                             : en:00:00:00.000
00:04:40.363                             : en:00:04:40.363
00:16:46.088                             : en:00:16:46.088
00:26:56.073                             : en:00:26:56.073
00:42:40.725                             : en:00:42:40.725
00:56:01.525                             : en:00:56:01.525
01:09:59.278                             : en:01:09:59.278
01:21:27.424                             : en:01:21:27.424
01:32:08.064                             : en:01:32:08.064

скриншот   скриншот   скриншот   скриншот   pb.wtf



Скачать Дом в конце улицы через торрент http://i63.fastpic.ru/big/2014/0527/8d/3f15d2bc52f7be1a2dd05eb8db801b8d.png Скачать фильм Дом в конце улицы через торрент бесплантно в хорошем качестве Описание: Переехав жить в небольшой провинциальный город, Сара и ее дочь еще не догадываются, что вскоре окажутся в эпицентре ... 10 10 1
Info! Золотая раздача, скачанное не засчитывается.
Торрент: Зарегистрирован [2014-05-27 09:23] · скачан: 10 раз
Статус: √ проверено
Размер: 21.43 GB
Как cкачать? Как скачать Дом в конце улицы через торрент | qTorrent

% Раздел Тема Автор DL S | L
Фильмы 2011 [ 2.18 GB ] Дом в конце улицы / House at the End of the Street [2011 BDRip лицензия] + оригинал Ворон Скачать
1 | 0
Фильмы 2012 [ 1.45 GB ] Дом в конце улицы / House at the End of the Street [2012 HDRip лицензия] кэп Скачать
1 | 0
Фильмы 2011 [ 1.46 GB ] Дом в конце улицы / House at the End of the Street [2011 BDRip-AVC] DUB Rzhavec Скачать
1 | 0
Фильмы [HD 720p, 1080p] (Хороший звук DUB, MVO) [ 8.38 GB ] Дом в конце улицы / House at the End of the Street [2012 BDRip 720p лицензия] Ke$h@ Скачать
1 | 0
Фильмы 2012 [ 744 MB ] Дом в конце улицы / House at the End of the Street [2012 HDRip] Dub Oдин 777 Скачать
1 | 0
Фильмы (DVD фильмы) [ 5.85 GB ] Дом в конце улицы / House at the End of the Street [2012 DVD9] R5 voovaz Скачать
1 | 0


Последний раз редактировалось: Seedtank (2014-05-27 19:23), всего редактировалось 1 раз

28-11-2019 20:33  

Отключить всю рекламу на сайте

27-05-2014 09:23 Дом в конце улицы Скачать торрент  

*Seedtank Edition
Релиз для настоящих коллекционеров.
Вшита обложка, перекодирован кодек в АС3 для воспроизводимости на любых медиаплеерах.
pb.wtf



    Дорогой пользователь! Огромная просьба, поблагодарите релизера, оцените раздачу и оставьте свои комментарий, если Вы скачали Дом в конце улицы через торрент бесплатно! Внесите свою лепту в развитие PiratBit!
    Комментировать посты могут только пользователи прошедшие не сложную регистрацию
    Показать сообщения:    

    Дом в конце улицы через торрент
    Скачать бесплатно Дом в конце улицы
    Дом в конце улицы скачать торрент
    Дом в конце улицы смотреть онлайн
    Cкачать фильм Дом в конце улицы бесплатно
    Дом в конце улицы скачать торрент в хорошем качестве
    Дом в конце улицы смотреть онлайн бесплатно в хорошем качестве


    Вы не можете начинать темы
    Вы не можете отвечать на сообщения
    Вы не можете редактировать свои сообщения
    Вы не можете удалять свои сообщения
    Вы не можете голосовать в опросах
    Вы не можете прикреплять файлы к сообщениям
    Вы можете скачивать файлы