2 сезон

iTunes

MVO

1

2 сезон

iTunes

iTunes

1 сезон

RePack

30

Новинка

ВАЖНО

ИГРА 18+

pack

RePack

MK11
pack

Легкие деньги

RePack

jed

RePack

fifa19

RePack

RDR2

RePack

NEED FOR SPEED™ PAYBACK

4 сезон

9 сезон

Бесстыжие 9 сезон

Все сериалы

все сериалы на PB.wtf

RePack

FAR CRY 5

Anonymous, доброе утро, мы не успеваем собрать деньги на оплату серверов за декабрь и январь, помогите нам пожалуйста в это трудное время. В качестве благодарности мы отключим Вам всю рекламу на сайте (укажите свой ник в строку Ваше имя)!

×
  
Magnet ссылка

Далласский клуб покупателей / Dallas Buyers Club (Жан-Марк Валле / Jean-Marc Vallée) [2013, США, драма, биография, история, HDRip,Авторский (одноголосый) [Сергей Визгунов] pb.wtf

Далласский клуб покупателей через торрент pb.wtf

Размер: 1.45 GB | Добавлен: 6 лет 10 мес. назад | Торрент скачан:357 раз
Скачать  

16-03-2014 16:51 Далласский клуб покупателей Скачать торрент  

Далласский клуб покупателей / Dallas Buyers Club

Год выпуска: 2013
Страна: США
Жанр: драма, биография, история

Продолжительность: 01:56:57
Перевод: Авторский (одноголосый)[Сергей Визгунов]
Субтитры: Нет
Режиссер: Жан-Марк Валле / Jean-Marc Vallée
В ролях: Мэттью МакКонахи (Ron Woodroof), Джаред Лето (Rayon), Дженнифер Гарнер (Eve), Дэнис О’Хэйр (Dr. Sevard), Стив Зан (Tucker), Майкл О’Нил (Richard Barkley), Даллас Робертс (David Wayne), Гриффин Данн (Dr. Vass), Кевин О. Ранкин (T.J.), Донна ДюПлантье (Nurse Frazin), Денин Тайлер (Denise), Дж.Д. Эвермор (Clint)
Описание:
Реальная история Рона Вудруфа, техасского электрика, у которого в 1985 году обнаружили СПИД. Врачи отвели ему всего 30 дней, но он не пожелал смириться со смертным приговором и сумел продлить свою жизнь, принимая нетрадиционные лекарства, а затем наладил подпольный бизнес по продаже их другим больным.
Рейтинг
kinopoisk.ru: 7.994 (26 298)
imdb.com: 8.00 (107 439)
MPAA: R - Лицам до 17 лет обязательно присутствие взрослого
Качество: HDRip
Формат: AVI
Видео кодек: XviD
Аудио кодек: AC3
Видео: XviD, 720x304 (2.35:1), 1573 kbps, 23,976 fps, 0,300 bpp
Аудио: AC3 / 2.0 / 48 kHz / 192 kbps / 16 bit

General
Complete name : D:ТорентыDallas.Buyers.Club.2013.HDRip.avi
Format : AVI
Format/Info : Audio Video Interleave
File size : 1.45 GiB
Duration : 1h 56mn
Overall bit rate : 1 775 Kbps
Writing application : VirtualDubMod 1.5.10.3 | www.virtualdub-fr.org || (build 2550/release)
Writing library : VirtualDubMod build 2550/release

Video
ID : 0
Format : MPEG-4 Visual
Format profile : Advanced Simple@L5
Format settings, BVOP : 1
Format settings, QPel : No
Format settings, GMC : No warppoints
Format settings, Matrix : Custom
Codec ID : XVID
Codec ID/Hint : XviD
Duration : 1h 56mn
Bit rate : 1 574 Kbps
Width : 720 pixels
Height : 304 pixels
Display aspect ratio : 2.35:1
Frame rate : 23.976 fps
Color space : YUV
Chroma subsampling : 4:2:0
Bit depth : 8 bits
Scan type : Progressive
Compression mode : Lossy
Bits/(Pixel*Frame) : 0.300
Stream size : 1.29 GiB (89%)
Writing library : XviD 73

Audio
ID : 1
Format : AC-3
Format/Info : Audio Coding 3
Mode extension : CM (complete main)
Codec ID : 2000
Duration : 1h 56mn
Bit rate mode : Constant
Bit rate : 192 Kbps
Channel(s) : 2 channels
Channel positions : Front: L R
Sampling rate : 48.0 KHz
Bit depth : 16 bits
Compression mode : Lossy
Stream size : 161 MiB (11%)
Alignment : Split accross interleaves
Interleave, duration : 42 ms (1.00 video frame)
Interleave, preload duration : 500 ms
pb.wtf



Скачать Далласский клуб покупателей через торрент http://i4.imageban.ru/out/2014/03/16/fd8656ae71331171992257562a7da9bd.jpg Скачать фильм Далласский клуб покупателей через торрент бесплантно в хорошем качестве Описание: Реальная история Рона Вудруфа, техасского электрика, у которого в 1985 году обнаружили СПИД. Врачи отвели ему всего 30 дней, но ... 9.5 10 16
Info! Золотая раздача, скачанное не засчитывается.
Торрент: Зарегистрирован [2014-03-16 16:51] · скачан: 357 раз
Статус: √ проверено
Размер: 1.45 GB
Как cкачать? Как скачать Далласский клуб покупателей через торрент | UTorrent

% Раздел Тема Автор DL S | L
Фильмы [HD 720p, 1080p] (Хороший звук DUB, MVO) [ 7.94 GB ] Далласский клуб покупателей / Dallas Buyers Club [2013 биография BDRip 1080p от еnvy / NNNB] DUB еnvy Скачать
34 | 0
Фильмы 2013 [DVDrip, WEB-DLRip, HDrip] [ 1.46 GB ] Далласский клуб покупателей / Dallas Buyers Club [2013 биография история HDRip] [] Anonymous Скачать
1 | 0
Фильмы 2013 [DVDrip, WEB-DLRip, HDrip] [ 2.13 GB ] Далласский клуб покупателей / Dallas Buyers Club [2013 биография история BDRip-AVC] DUB potroks Скачать
1 | 0
Фильмы [HD 720p, 1080p] (Хороший звук DUB, MVO) [ 6.9 GB ] Далласский клуб покупателей / Dallas Buyers Club [2013 биография история BDRip 720p] MVO [Baibako] + Original Messa-fan Скачать
1 | 0
Фильмы (Blu-ray, BD-Remux, HDDVD) [ 30.97 GB ] Далласский клуб покупателей / Dallas Buyers Club [2013 биография история BDRemux] DUB / лицензия Ворон Скачать
1 | 0
Фильмы (DVD фильмы) [ 6.75 GB ] Далласский клуб покупателей / Dallas Buyers Club [2013 биография история DVD9] R5 voovaz Скачать
1 | 0
Фильмы 2013 [DVDrip, WEB-DLRip, HDrip] [ 2.05 GB ] Далласский клуб покупателей / Dallas Buyers Club [2013 биография история HDRip] DUB [] Ворон Скачать
1 | 0

28-11-2019 20:33  

Отключить всю рекламу на сайте

17-03-2014 06:09 Далласский клуб покупателей Скачать торрент  

моя оценка 10. мне фильм понравился. не зря дали по оскару героям.pb.wtf



17-03-2014 16:46 Далласский клуб покупателей Скачать торрент  

janna2013 писал(а):

моя оценка 10. мне фильм понравился. не зря дали по оскару героям.

Ну да,где при этом двое жюри признались что не смотрели этот фильм :rofle: :rofle:pb.wtf



19-03-2014 16:19 Далласский клуб покупателей Скачать торрент  

когда же дубляж? кто в курсе?pb.wtf



    Дорогой пользователь! Огромная просьба, поблагодарите релизера, оцените раздачу и оставьте свои комментарий, если Вы скачали Далласский клуб покупателей через торрент бесплатно! Внесите свою лепту в развитие PiratBit!
    Комментировать посты могут только пользователи прошедшие не сложную регистрацию
    Показать сообщения:    

    Далласский клуб покупателей через торрент
    Скачать бесплатно Далласский клуб покупателей
    Далласский клуб покупателей скачать торрент
    Далласский клуб покупателей смотреть онлайн
    Cкачать фильм Далласский клуб покупателей бесплатно
    Далласский клуб покупателей скачать торрент в хорошем качестве
    Далласский клуб покупателей смотреть онлайн бесплатно в хорошем качестве


    Вы не можете начинать темы
    Вы не можете отвечать на сообщения
    Вы не можете редактировать свои сообщения
    Вы не можете удалять свои сообщения
    Вы не можете голосовать в опросах
    Вы не можете прикреплять файлы к сообщениям
    Вы можете скачивать файлы