Ссылка на приватное зеркало нашего сайта всего за 1$. Внимание количество ограничено!!!

2 сезон

iTunes

1 сезон

1

2 сезон

2 сезон

iTunes

1 сезон

RePack

30

Ultimate

ВАЖНО

ИГРА 18+

pack

RePack

MK11
pack

Забери бонус

RePack

jed

!!Акция!!

Alien_Rage

RePack

fifa19

RePack

Assassins Creed: Odyssey

RePack

NEED FOR SPEED™ PAYBACK

4 сезон

9 сезон

Бесстыжие 9 сезон

Все сериалы

все сериалы на PB.wtf

RePack

FAR CRY 5
  

Угасшие / The Fades / Серии: 1-6 (6) [2011, фэнтези, ужасы, драма, BDRip 720p] MVO (AlexFilm) + Subs (Rus, Eng) pb.wtf

Угасшие через торрент pb.wtf

Размер: 23.95 GB | Добавлен: 6 лет 6 мес. назад | Торрент скачан:38 раз
Скачать  

27-05-2014 14:37 Угасшие Скачать торрент  


Призраки / The Fades


Год выпуска: 2011
Страна:Великобритания
Жанр:ужасы, фэнтези
Продолжительность:6 x ~57 мин
Перевод:Профессиональный (многоголосый, закадровый) (AlexFilm)
Субтитры: русские, английские
Режиссер: Фэррен Блэкберн / Farren Blackburn, Том Шенклэнд / Tom Shankland

  • В ролях:

    Йен де Кестекер (Paul), Натали Дормер (Sarah), Том Эллис (Mark), Джонни Харрис (Neil Valentine), Дэниэл Калуя (Mac), Даниэла Нардини (Helen), Клэр Рашбрук (Meg), Лили Лавлесс (Anna), Софи Ву (Jay), Робби Ги (DCI Armstrong), Дженн Мюррэй (Natalie), Френсис Маджи (Dr. Tremlett)

  • Описание:
    Два друга, подростки Пол и Мак, не слишком популярны в своей школе. Причём «не слишком» - ещё мягко сказано. Всё разом меняется, когда Пол начинает видеть духов умерших, запертых в нашем мире. Его находит группа чудаков, наблюдающих за духами. Они называют себя «Ангелиане» и пытаются как-то приставить его к делу. Тем временем, Полюс и его «подручные жмурики» пытаются воплотиться, прорваться в мир живых и устроить апокалипсис...

  • Мировая премьера:21 сентября 2011


    Внимание! В сериале присутствует ненормативная лексика!
      Качество: BDRip 720p
      Формат: MKV
      Видео кодек: AVC
      Аудио кодек:DTS
      Видео: 1280x720 (16:9), 25 fps, MPEG-4 AVC ~4988-9060 kbps avg, 0.216-0.393 bit/pixel
      ✦ Аудио Rus: 48 kHz/16bit, DTS, 2 channels, ~1509.00 kbps avg
      ✦ Аудио Eng: 48 kHz/16bit, DTS, 2 channels, ~1509.00 kbps avg


    Перевод: Илья Белкин (volverine73)
    Роли озвучивали:
    Мила Мирелли
    Светлана Чистохина
    Михаил Суслов
    Александр Дасевич

    Код:

    Format : Matroska
    Format version : Version 4 / Version 2
    File size : 4.88 GiB
    Duration : 56mn 41s
    Overall bit rate : 12.3 Mbps
    Encoded date : UTC 2014-05-01 18:45:20
    Writing application : mkvmerge v6.9.1 ('Blue Panther') 64bit built on Apr 18 2014 18:23:38
    Writing library : libebml v1.3.0 + libmatroska v1.4.1
    Video
    ID : 1
    Format : AVC
    Format/Info : Advanced Video Codec
    Format profile : High@L4.1
    Format settings, CABAC : Yes
    Format settings, ReFrames : 9 frames
    Codec ID : V_MPEG4/ISO/AVC
    Duration : 56mn 41s
    Bit rate : 9 060 Kbps
    Width : 1 280 pixels
    Height : 720 pixels
    Display aspect ratio : 16:9
    Frame rate mode : Constant
    Frame rate : 25.000 fps
    Color space : YUV
    Chroma subsampling : 4:2:0
    Bit depth : 8 bits
    Scan type : Progressive
    Bits/(Pixel*Frame) : 0.393
    Stream size : 3.59 GiB (74%)
    Title : The Fades. Series 01 Episode 01 UK
    Writing library : x264 core 142 r2431kMod ac76440
    Encoding settings : cabac=1 / ref=9 / deblock=1:-3:-3 / analyse=0x3:0x133 / me=umh / subme=10 / psy=1 / fade_compensate=0.00 / psy_rd=1.00:0.00 / mixed_ref=1 / me_range=32 / chroma_me=1 / trellis=2 / 8x8dct=1 / cqm=0 / deadzone=21,11 / fast_pskip=1 / chroma_qp_offset=-2 / threads=16 / lookahead_threads=2 / sliced_threads=0 / nr=0 / decimate=1 / interlaced=0 / bluray_compat=0 / constrained_intra=0 / fgo=0 / bframes=7 / b_pyramid=2 / b_adapt=2 / b_bias=0 / direct=3 / weightb=1 / open_gop=0 / weightp=2 / keyint=250 / keyint_min=23 / scenecut=40 / intra_refresh=0 / rc_lookahead=40 / rc=crf / mbtree=0 / crf=17.0000 / qcomp=0.65 / qpmin=0 / qpmax=40 / qpstep=4 / vbv_maxrate=50000 / vbv_bufsize=50000 / crf_max=0.0 / nal_hrd=none / filler=0 / ip_ratio=1.25 / pb_ratio=1.25 / aq=1:0.60
    Language : English
    Default : Yes
    Forced : No
    Audio #1
    ID : 2
    Format : DTS
    Format/Info : Digital Theater Systems
    Mode : 16
    Format settings, Endianness : Big
    Codec ID : A_DTS
    Duration : 56mn 41s
    Bit rate mode : Constant
    Bit rate : 1 509 Kbps
    Channel(s) : 2 channels
    Channel positions : Front: L R
    Sampling rate : 48.0 KHz
    Bit depth : 16 bits
    Compression mode : Lossy
    Stream size : 612 MiB (12%)
    Title : DTS 2.0 @ 1509 kbps - AlexFilm
    Language : Russian
    Default : Yes
    Forced : No
    Audio #2
    ID : 3
    Format : DTS
    Format/Info : Digital Theater Systems
    Mode : 16
    Format settings, Endianness : Big
    Codec ID : A_DTS
    Duration : 56mn 41s
    Bit rate mode : Constant
    Bit rate : 1 509 Kbps
    Channel(s) : 2 channels
    Channel positions : Front: L R
    Sampling rate : 48.0 KHz
    Bit depth : 16 bits
    Compression mode : Lossy
    Stream size : 612 MiB (12%)
    Title : DTS 2.0 @ 1509 kbps
    Language : English
    Default : No
    Forced : No
    Text #1
    ID : 4
    Format : UTF-8
    Codec ID : S_TEXT/UTF8
    Codec ID/Info : UTF-8 Plain Text
    Title : Илья Белкин - volverine73
    Language : Russian
    Default : No
    Forced : No
    Text #2
    ID : 5
    Format : UTF-8
    Codec ID : S_TEXT/UTF8
    Codec ID/Info : UTF-8 Plain Text
    Language : English
    Default : No
    Forced : No
    Menu
    00:00:00.000 : en:00:00:00.000
    00:08:36.840 : en:00:08:36.840
    00:13:16.840 : en:00:13:16.840
    00:21:17.079 : en:00:21:17.079
    00:27:33.880 : en:00:27:33.880
    00:36:28.400 : en:00:36:28.400
    00:42:37.599 : en:00:42:37.599
    00:47:34.960 : en:00:47:34.960
    00:55:44.960 : en:00:55:44.960

    Скриншоты:

    Каталог Новинок (Фильмы-трейлеры, Игры, Сериалы, Мультфильмы)

    © Оформление by Raven
    pb.wtf



  • Скачать Угасшие через торрент http://pic.kartinco.top/images/6/stazu.jpg Скачать фильм Угасшие через торрент бесплантно в хорошем качестве Описание:Два друга, подростки Пол и Мак, не слишком популярны в своей школе. Причём «не слишком» - ещё мягко сказано. Всё разом меняется, ... 10 10 3
    Info! Золотая раздача, скачанное не засчитывается.
    Торрент: Зарегистрирован [2014-05-27 14:37] · скачан: 38 раз
    Статус: √ проверено
    Размер: 23.95 GB
    Как cкачать? Как скачать Угасшие через торрент | qTorrent

    28-11-2019 20:33  

    Отключить всю рекламу на сайте

    27-05-2014 15:07 Угасшие Скачать торрент  

    ХМ почему в шапочке "Угасшие / The Fades", а в заголовке "Призраки / The Fades"pb.wtf



    27-05-2014 15:44 Угасшие Скачать торрент  

    А поменьше размерчик не ожидается?pb.wtf



    27-05-2014 19:48 Угасшие Скачать торрент  

      Дорогой пользователь! Огромная просьба, поблагодарите релизера, оцените раздачу и оставьте свои комментарий, если Вы скачали Угасшие через торрент бесплатно! Внесите свою лепту в развитие PiratBit!
      Комментировать посты могут только пользователи прошедшие не сложную регистрацию
      Показать сообщения:    

      Угасшие через торрент
      Скачать бесплатно Угасшие
      Угасшие скачать торрент
      Угасшие смотреть онлайн
      Cкачать фильм Угасшие бесплатно
      Угасшие скачать торрент в хорошем качестве
      Угасшие смотреть онлайн бесплатно в хорошем качестве


      Вы не можете начинать темы
      Вы не можете отвечать на сообщения
      Вы не можете редактировать свои сообщения
      Вы не можете удалять свои сообщения
      Вы не можете голосовать в опросах
      Вы не можете прикреплять файлы к сообщениям
      Вы можете скачивать файлы