Мега распродажа FORZA HORIZON 4 ULTIMATE+ВСЕ DLC+ОНЛАЙН всего за 499р. 349 руб. (супер цена). Внимание количество ограничено!!!

iTunes

1+1

iTunes

мы

iTunes

1

iTunes

Чернобыль

1 сезон

Ральф против интернета

Лицензия

ПШазам

Лицензия

Игра престолов

Лицензия

30
pack

ВАЖНО

!!Акция!!

Alien_RageХит недели

RePack

Resident Evil 21

ИГРА 18+

pack

RePack

Metro:Exodus

!!Акция!!

Alien_Rage

RePack

fifa19

RePack

Assassins Creed: Odyssey

RePack

NEED FOR SPEED™ PAYBACK

3 сезон

9 сезон

Бесстыжие 9 сезон

Все сериалы

все сериалы на PB.wtf

RePack

FAR CRY 5
Ребята, катастрофически не хватает 7730р. для оплаты серверов за ИЮЛЬ (всвязи с блокировками трафик упал в 3 раза), 1-2р., выручайте.
  

Мост в Терабитию / Bridge to Terabithia (Габор Чупо) [2007, фэнтези, драма, приключения, BDRip, Дубляж (Лицензия)] pb.wtf

Мост в Терабитию через торрент pb.wtf

Размер: 2.05 GB | Добавлен: 8 мес. назад | Торрент скачан:56 раз
Скачать  

01-05-2010 11:38 Мост в Терабитию Скачать торрент  

Мост в Терабитию / Bridge to Terabithia
««Сказка становится реальностью»»

Год выпуска: 2007
Страна: США
Жанр: фэнтези, драма, приключения, семейный

Продолжительность: 01:35:31
Перевод: Дубляж - [Лицензия R5]
Субтитры: Русские, Английские (отдельным файлом)
Режиссер: Габор Чупо
В ролях:

Джош Хатчерсон (Jess Aarons), Анна-София Робб (Leslie Burke), Зои Дешанель (Ms. Edmunds), Роберт Патрик (Jack Aarons), Бэйли Мэдисон (May Belle Aarons), Кейт Батлер (Mary Aarons), Девон Вуд (Brenda Aarons), Эмма Фентон (Ellie Aarons), Грэйс Брэнниган (Joyce Aarons), Лэтэм Гейнс (Bill Burke), Джуди МакИнтош (Judy Burke), Патриция Элдерсли (Grandma Burke)
Описание:
Надежды ученика пятого класса Джесса Аарона стать самым быстрым бегуном в классе разбились после того, как новичок Лесли Берк одержала победу в соревнованиях.
Рейтинг:
rating
MPAA: PG - Рекомендуется присутствие родителей
Качество: BDRip
Формат: AVI
Видео: XviD, 704x384 (1.85:1), 2039 kbps, 23,976 fps, 0,315 bpp
Аудио №1: AC3 / 5.1 / 48 kHz / 448 kbps / - Русский (Дубляж, R5)
Аудио №2: AC3 / 5.1 / 48 kHz / 448 kbps / - Английский (Оригинал)
General
Complete name : D:\Most.V.Terabitiju.2007.RUS.BDRip.XviD.AC3.-HELLYWOOD\Most.V.Terabitiju.2007.RUS.BDRip.XviD.AC3.-HELLYWOOD.avi
Format : AVI
Format/Info : Audio Video Interleave
File size : 2.05 GiB
Duration : 1 h 35 min
Overall bit rate : 3 067 kb/s
Movie name : Most.V.Terabitiju.2007.RUS.BDRip.XviD.AC3.-HELLYWOOD
Director : Gummy
Writing application : VirtualDubMod 1.5.10.2 (build 2542/release)
Copyright : http://forum.hellywood.ru/forum.php

Video
ID : 0
Format : MPEG-4 Visual
Format profile : Advanced Simple@L5
Format settings, BVOP : 2
Format settings, QPel : No
Format settings, GMC : No warppoints
Format settings, Matrix : Custom
Codec ID : XVID
Codec ID/Hint : XviD
Duration : 1 h 35 min
Bit rate : 2 039 kb/s
Width : 704 pixels
Height : 384 pixels
Display aspect ratio : 1.85:1
Frame rate : 23.976 (23976/1000) FPS
Color space : YUV
Chroma subsampling : 4:2:0
Bit depth : 8 bits
Scan type : Progressive
Compression mode : Lossy
Bits/(Pixel*Frame) : 0.315
Stream size : 1.36 GiB (66%)
Writing library : XviD 65

Audio #1
ID : 1
Format : AC-3
Format/Info : Audio Coding 3
Mode extension : CM (complete main)
Format settings, Endianness : Big
Codec ID : 2000
Duration : 1 h 35 min
Bit rate mode : Constant
Bit rate : 448 kb/s
Channel(s) : 6 channels
Channel positions : Front: L C R, Side: L R, LFE
Sampling rate : 48.0 kHz
Frame rate : 31.250 FPS (1536 spf)
Compression mode : Lossy
Stream size : 306 MiB (15%)
Alignment : Split accross interleaves

Audio #2
ID : 2
Format : AC-3
Format/Info : Audio Coding 3
Mode extension : CM (complete main)
Format settings, Endianness : Big
Codec ID : 2000
Duration : 1 h 35 min
Bit rate mode : Constant
Bit rate : 448 kb/s
Channel(s) : 6 channels
Channel positions : Front: L C R, Side: L R, LFE
Sampling rate : 48.0 kHz
Frame rate : 31.250 FPS (1536 spf)
Compression mode : Lossy
Stream size : 306 MiB (15%)
Alignment : Split accross interleaves
скриншот   скриншот   скриншот  
pb.wtf



Скачать Мост в Терабитию через торрент http://pic.kartinco.top/images/6/gmfu8.jpg Скачать фильм Мост в Терабитию через торрент бесплантно в хорошем качестве Описание: Надежды ученика пятого класса Джесса Аарона стать самым быстрым бегуном в классе разбились после того, как новичок Лесли Берк ... 9.3 10 13
Торрент: Зарегистрирован [2018-11-24 12:07] · скачан: 56 раз
Статус: √ проверено
Размер: 2.05 GB
Как cкачать? Как скачать Мост в Терабитию через торрент | qTorrent

% Раздел Тема Автор DL S | L
Фильмы [HD 720p, 1080p] (Хороший звук DUB, MVO) [ 4.01 GB ] Мост в Терабитию / Bridge to Terabithia [2007 BDRip 720p ()] -Lexx- Скачать
1 | 0
Фильмы [HD 720p, 1080p] (Хороший звук DUB, MVO) [ 7.76 GB ] Мост в Терабитию / Bridge to Terabithia [2007 BDRip 1080р ()] Xa0s Скачать
1 | 0


>> Регистрируемся здесь <<






Отзывы и комментарии о схеме читаем и пишем здесь: ---> Отзывы и комментарии о схеме

Новые благодарочки в телеграм довольных пользователей:
скриншот   скриншот   скриншот   скриншот   скриншот

01-05-2010 12:01 Мост в Терабитию Скачать торрент  

очень классный фильм!!!!!!!!!!!!!!!!!!!!!!!!!!!немного грустный...
а у девочки какая интересная внешность, прям инопланетянка)))
вобщем стоит смотреть!!!!!!!!!!!!!!pb.wtf



01-05-2010 13:15 Мост в Терабитию Скачать торрент  

По мне так не очень класс.pb.wtf



01-05-2010 21:12 Мост в Терабитию Скачать торрент  

SCooRPION писал(а):

По мне так не очень класс.

На вкус и цвет товарищей нет)
Всем не угодиш...pb.wtf



31-10-2010 10:53 Мост в Терабитию Скачать торрент  

да, хороший фильм, можно качатьpb.wtf



26-12-2011 23:17 Мост в Терабитию Скачать торрент  

и фильм неплохой..и девочка ,Анна-Cофия Робб ,актриса хорошая!!!!!!!
...только я её видела в 6 фильмах...
..в это году она снялась в фильме "Серфер души" / Soul Surfer -биографическая драма
(а до этого были:Лунатизм / Sleepwalking 2008,Фома Неверующий / Spy School (2008) ,Жатва / The Reaping (2007),а ещё сентиментальный фильм Благодаря Винн Дикси / Because of Winn-Dixie (2005) :tease: ..и это в таком юном возрасте.. pb.wtf



    Дорогой пользователь! Огромная просьба, поблагодарите релизера, оцените раздачу и оставьте свои комментарий, если Вы скачали Мост в Терабитию через торрент бесплатно! Внесите свою лепту в развитие PiratBit!
    Комментировать посты могут только пользователи прошедшие не сложную регистрацию
    Показать сообщения:    

    Мост в Терабитию через торрент
    Скачать бесплатно Мост в Терабитию
    Мост в Терабитию скачать торрент
    Мост в Терабитию смотреть онлайн
    Cкачать фильм Мост в Терабитию бесплатно
    Мост в Терабитию скачать торрент в хорошем качестве
    Мост в Терабитию смотреть онлайн бесплатно в хорошем качестве


    Вы не можете начинать темы
    Вы не можете отвечать на сообщения
    Вы не можете редактировать свои сообщения
    Вы не можете удалять свои сообщения
    Вы не можете голосовать в опросах
    Вы не можете прикреплять файлы к сообщениям
    Вы можете скачивать файлы