Ссылка на приватное зеркало нашего сайта всего за 1$. Внимание количество ограничено!!!

2 сезон

iTunes

1 сезон

1

iTunes

iTunes

iTunes

1 сезон

RePack

30

ИГРА 18+

pack

ВАЖНО

!!Акция!!

Alien_RageХит недели

RePack

MK11
pack

Забери бонус

RePack

jed

!!Акция!!

Alien_Rage

RePack

fifa19

RePack

Assassins Creed: Odyssey

RePack

NEED FOR SPEED™ PAYBACK

4 сезон

9 сезон

Бесстыжие 9 сезон

Все сериалы

все сериалы на PB.wtf

RePack

FAR CRY 5
  

Открытый перелом / Compound Fracture (Энтони Дж. Рикерт-Эпстин) [2013 г., ужасы, триллер, WEB-DLRip, Любительский двухголосый] pb.wtf

Открытый перелом через торрент pb.wtf

Размер: 2.17 GB | Добавлен: 6 лет 4 мес. назад | Торрент скачан:68 раз
Скачать  

27-05-2014 17:48 Открытый перелом Скачать торрент  

Открытый перелом / Compound Fracture
Год выпуска: 2013
Страна: США / Mane Entertainment See more
Жанр: ужасы, триллер
Продолжительность: 01:30:59
Перевод: Любительский двухголосый (DeadSno & den904)

Режиссер: Энтони Дж. Рикерт-Эпстин

В ролях: Тайлер Мэйн, Мьюз Уотсон, Дерек Мирс, Лесли Истербрук, Рене Гирлингс, Алекс Саксон, Сьюзэн Анджело, Джелли Хоуи, Дэниэл Робак, Тодд Фармер

Описание: Сюжет фильма о том, как на глазах у своего сына отец убивает мать. Паренька берет в опеку родной дядя с женой и они вместе уезжают жить к дедушке, пытаясь наладить новый быт. Но все не так просто дедушка не совсем вменяем и здесь же появляется призрак его брата убийцы. Призрак хочет уничтожить всех членов семьи.

Качество: WEB-DLRip
Формат: AVI
Видео кодек: XviD
Аудио кодек: AC3
Видео: 720x304 (2.37:1), 23.976 fps, XviD build 50 ~3025 kbps avg, 0.58 bit/pixel
Аудио: 48 kHz, AC3 Dolby Digital, 3/2 (L,C,R,l,r) + LFE ch, ~384 kbps

скриншот   скриншот   скриншот   скриншот   скриншот  

Общее
Полное имя : H:\кино\Compound.Fracture.2013.WEB-DLRip.avi
Формат : AVI
Формат/Информация : Audio Video Interleave
Профиль формата : OpenDML
Размер файла : 2,17 Гбайт
Продолжительность : 1 ч. 30 м.
Общий поток : 3416 Кбит/сек
Программа кодирования : VirtualDubMod 1.5.10.3 | www.virtualdub-fr.org || (build 2550/release)
Библиотека кодирования : VirtualDubMod build 2550/release

Видео
Идентификатор : 0
Формат : MPEG-4 Visual
Профиль формата : Advanced Simple@L5
Параметр BVOP формата : 2
Параметр QPel формата : Нет
Параметр GMC формата : Без точки перехода
Параметр матрицы формата : Default (H.263)
Идентификатор кодека : XVID
Идентификатор кодека/Подсказка : XviD
Продолжительность : 1 ч. 30 м.
Битрейт : 3020 Кбит/сек
Ширина : 720 пикселей
Высота : 304 пикселя
Соотношение сторон : 2,35:1
Частота кадров : 23,976 кадра/сек
Цветовое пространство : YUV
Субдискретизация насыщенности : 4:2:0
Битовая глубина : 8 бит
Тип развёртки : Прогрессивная
Метод сжатия : С потерями
Бит/(Пиксели*Кадры) : 0.576
Размер потока : 1,92 Гбайт (88%)
Библиотека кодирования : XviD 1.2.1 (UTC 2008-12-04)

Аудио
Идентификатор : 1
Формат : AC-3
Формат/Информация : Audio Coding 3
Расширение режима : CM (complete main)
Параметр Endianness формата : Big
Идентификатор кодека : 2000
Продолжительность : 1 ч. 30 м.
Вид битрейта : Постоянный
Битрейт : 384 Кбит/сек
Каналы : 6 каналов
Расположение каналов : Front: L C R, Side: L R, LFE
Частота : 48,0 КГц
Битовая глубина : 16 бит
Метод сжатия : С потерями
Размер потока : 250 Мбайт (11%)
Выравнивание : Разделение по промежуткам
Продолжительность промежутка : 42 мс. (1,00 видеокадр)
Время предзагрузки промежутка : 500 мс.

pb.wtf



Скачать Открытый перелом через торрент http://pic.kartinco.top/images/6/l5tvs.jpg Скачать фильм Открытый перелом через торрент бесплантно в хорошем качестве Описание: Сюжет фильма о том, как на глазах у своего сына отец убивает мать. Паренька берет в опеку родной дядя с женой и они вместе ... 10 10 1
Торрент: Зарегистрирован [2014-05-27 17:48] · скачан: 68 раз
Статус: T временная
Размер: 2.17 GB
Как cкачать? Как скачать Открытый перелом через торрент | qTorrent

% Раздел Тема Автор DL S | L
T Фильмы (WEB-DL 720p, 1080p) [ 2.71 GB ] Открытый перелом / Compound Fracture [ 2013 WEB-DL720p ] DVO [DeadSno & den904] GEKADOL Скачать
1 | 0

28-11-2019 20:33  

Отключить всю рекламу на сайте

    Дорогой пользователь! Огромная просьба, поблагодарите релизера, оцените раздачу и оставьте свои комментарий, если Вы скачали Открытый перелом через торрент бесплатно! Внесите свою лепту в развитие PiratBit!
    Комментировать посты могут только пользователи прошедшие не сложную регистрацию
    Показать сообщения:    

    Открытый перелом через торрент
    Скачать бесплатно Открытый перелом
    Открытый перелом скачать торрент
    Открытый перелом смотреть онлайн
    Cкачать фильм Открытый перелом бесплатно
    Открытый перелом скачать торрент в хорошем качестве
    Открытый перелом смотреть онлайн бесплатно в хорошем качестве


    Вы не можете начинать темы
    Вы не можете отвечать на сообщения
    Вы не можете редактировать свои сообщения
    Вы не можете удалять свои сообщения
    Вы не можете голосовать в опросах
    Вы не можете прикреплять файлы к сообщениям
    Вы можете скачивать файлы