Ссылка на приватное зеркало нашего сайта всего за 1$. Внимание количество ограничено!!!

2 сезон

iTunes

1 сезон

1

iTunes

iTunes

iTunes

1 сезон

RePack

30

ИГРА 18+

pack

ВАЖНО

!!Акция!!

Alien_RageХит недели

RePack

MK11
pack

Забери бонус

RePack

jed

!!Акция!!

Alien_Rage

RePack

fifa19

RePack

Assassins Creed: Odyssey

RePack

NEED FOR SPEED™ PAYBACK

4 сезон

9 сезон

Бесстыжие 9 сезон

Все сериалы

все сериалы на PB.wtf

RePack

FAR CRY 5
  

Космонавт / The Cosmonaut (Николас Алькала / Nicolás Alcalá) [2013, Испания, Латвия, фантастика, драма, мелодрама, WEB-DLRip,Любительский (двухголосый)[den904, DeadSno] pb.wtf

Космонавт через торрент pb.wtf

Размер: 1.37 GB | Добавлен: 6 лет 5 мес. назад | Торрент скачан:200 раз
Скачать  

28-05-2014 08:07 Космонавт Скачать торрент  


Космонавт / The Cosmonaut


Год выпуска: 2013
Страна:Испания, Латвия
Жанр:фантастика, драма, мелодрама, история
Продолжительность:01:42:16
Перевод:Любительский (двухголосый)[den904, DeadSno]
Субтитры: Нет
Режиссер: Николас Алькала / Nicolás Alcalá

  • В ролях:

    Макс Роттсли (Andrei), Катрин Де Кандоул (Yulia), Леон Окенден (Stas), Грег Блэкфорд (Nikolai), Дэвид Баррасс (Chelomei), Ганс-Экарт Экхардт (General Alexander), Ли Чейни (Sergei), Стив Галаче (Sasha), Arturs Lindemanis (Kosygin), Roberts Lismanis (Technician #6), Aleksander Sasha Kelberg (Man #2), Эгилс Мелбардис (Kubasov)

  • Описание:
    В 1975-м году первый советский космонавт был отправлен на Луну. Потерявшего возможность вернуться, его объявили сгинувшим в космическом пространстве. Но слабые радиосигналы от космонавта нарисовали совсем другую картину случившегося - он вернулся, однако Земля оказалась безлюдной. И его радиопослания с описанием увиденного вокруг медленно разрушают мир его любимых.

  • Мировая премьера:9 мая 2013


      Качество: WEB-DLRip
      Формат: AVI
      Видео кодек: XviD
      Аудио кодек:AC3
      Видео: XviD, 720x304 (2.35:1), 1711 kbps, 23,976 fps, 0,326 bpp
      Аудио: AC3 / 2.0 / 48 kHz / 192 kbps / 16 bit


    Код:

    General
    Complete name                            : D:\Торенты\The.Cosmonaut.2013.L2.WEBDLRip.1400Mb.avi
    Format                                   : AVI
    Format/Info                              : Audio Video Interleave
    File size                                : 1.37 GiB
    Duration                                 : 1h 42mn
    Overall bit rate                         : 1 913 Kbps
    Writing application                      : VirtualDubMod 1.5.10.3 | www.virtualdub-fr.org || (build 2550/release)
    Writing library                          : VirtualDubMod build 2550/release

    Video
    ID                                       : 0
    Format                                   : MPEG-4 Visual
    Format profile                           : Advanced Simple@L5
    Format settings, BVOP                    : 1
    Format settings, QPel                    : No
    Format settings, GMC                     : No warppoints
    Format settings, Matrix                  : Custom
    Codec ID                                 : XVID
    Codec ID/Hint                            : XviD
    Duration                                 : 1h 42mn
    Bit rate                                 : 1 711 Kbps
    Width                                    : 720 pixels
    Height                                   : 304 pixels
    Display aspect ratio                     : 2.35:1
    Frame rate                               : 23.976 fps
    Color space                              : YUV
    Chroma subsampling                       : 4:2:0
    Bit depth                                : 8 bits
    Scan type                                : Progressive
    Compression mode                         : Lossy
    Bits/(Pixel*Frame)                       : 0.326
    Stream size                              : 1.22 GiB (89%)
    Writing library                          : XviD 1.2.1 (UTC 2008-12-04)

    Audio
    ID                                       : 1
    Format                                   : AC-3
    Format/Info                              : Audio Coding 3
    Mode extension                           : CM (complete main)
    Codec ID                                 : 2000
    Duration                                 : 1h 42mn
    Bit rate mode                            : Constant
    Bit rate                                 : 192 Kbps
    Channel(s)                               : 2 channels
    Channel positions                        : Front: L R
    Sampling rate                            : 48.0 KHz
    Bit depth                                : 16 bits
    Compression mode                         : Lossy
    Stream size                              : 140 MiB (10%)
    Alignment                                : Split accross interleaves
    Interleave, duration                     : 42 ms (1.00 video frame)
    Interleave, preload duration             : 500 ms

    Скриншоты:

    Каталог Новинок (Фильмы-трейлеры, Игры, Сериалы, Мультфильмы)

    © Оформление by Raven
    pb.wtf



  • Скачать Космонавт через торрент http://pic.kartinco.top/images/6/stazu.jpg Скачать фильм Космонавт через торрент бесплантно в хорошем качестве Описание:В 1975-м году первый советский космонавт был отправлен на Луну. Потерявшего возможность вернуться, его объявили сгинувшим в ... 10 10 7
    Торрент: Зарегистрирован [2014-05-28 08:07] · скачан: 200 раз
    Статус: √ проверено
    Размер: 1.37 GB
    Как cкачать? Как скачать Космонавт через торрент | qTorrent

    % Раздел Тема Автор DL S | L
    Документальные фильмы и телепередачи [ 1.46 GB ] Космонавты. Как Россия выиграла космическую гонку / Cosmonauts. How Russia Won the Space Race [2014 Документальный HDTVRip Любительский одноголосый] МИХА~ Скачать
    1 | 0
    T Фильмы 2013 (Звук TS, Cam, VO, DVO) [ 1.46 GB ] Космонавт / The Cosmonaut [2013 история WEB-DLRip Любительский одноголосый] coc900 Скачать
    1 | 0

    28-11-2019 20:33  

    Отключить всю рекламу на сайте

    29-05-2014 14:28 Космонавт Скачать торрент  

    Где комменты?)как фильм?)pb.wtf



    12-07-2014 15:26 Космонавт Скачать торрент  

    Звнудная бездарная муть.pb.wtf



      Дорогой пользователь! Огромная просьба, поблагодарите релизера, оцените раздачу и оставьте свои комментарий, если Вы скачали Космонавт через торрент бесплатно! Внесите свою лепту в развитие PiratBit!
      Комментировать посты могут только пользователи прошедшие не сложную регистрацию
      Показать сообщения:    

      Космонавт через торрент
      Скачать бесплатно Космонавт
      Космонавт скачать торрент
      Космонавт смотреть онлайн
      Cкачать фильм Космонавт бесплатно
      Космонавт скачать торрент в хорошем качестве
      Космонавт смотреть онлайн бесплатно в хорошем качестве


      Вы не можете начинать темы
      Вы не можете отвечать на сообщения
      Вы не можете редактировать свои сообщения
      Вы не можете удалять свои сообщения
      Вы не можете голосовать в опросах
      Вы не можете прикреплять файлы к сообщениям
      Вы можете скачивать файлы