2 сезон

iTunes

1 сезон

1

iTunes

iTunes

iTunes

1 сезон

RePack

30

ИГРА 18+

pack

ВАЖНО

!!Акция!!

Alien_RageХит недели

RePack

MK11
pack

Забери бонус

RePack

jed

!!Акция!!

Alien_Rage

RePack

fifa19

RePack

Assassins Creed: Odyssey

RePack

NEED FOR SPEED™ PAYBACK

4 сезон

9 сезон

Бесстыжие 9 сезон

Все сериалы

все сериалы на PB.wtf

RePack

FAR CRY 5
  

Олли и сокровища пиратов / Dive Olly Dive and the Pirate Treasure (Боб Дусетте / Bob Doucette, Гари Херст / Gary Hurst, Боб Бакстер / Bob Baxter) [2014, США, мультфильм, семейный, детский, DVDRip,Профессиональный [Дубляж - Лицензия] pb.wtf

Олли и сокровища пиратов через торрент pb.wtf

Размер: 1.46 GB | Добавлен: 6 лет 5 мес. назад | Торрент скачан:892 раза
Скачать  

26-05-2014 03:08 Олли и сокровища пиратов Скачать торрент  

Олли и сокровища пиратов / Dive Olly Dive and the Pirate Treasure

Год выпуска: 2014
Страна: США
Жанр: мультфильм, семейный, детский
Продолжительность: 01:16:43
Перевод: Профессиональный [Дубляж - Лицензия]
Субтитры: Нет
Режиссер: Боб Дусетте / Bob Doucette, Гари Херст / Gary Hurst, Боб Бакстер / Bob Baxter
Описание:
К подводным лодками Олли и Бэт присоединяется их друг Бобси, который совершенно убежден, что является потомком «Пи-Ратов» - давних искателей легендарного клада.
Их путешествие за сокровищем наполнено чудесами, приключениями и, конечно, юмором, потому что по пятам за ним следует банда Красных Морских Коньков под предводительством интеллигентной, но крайне опасной Акулы... Но даже это не смогло остановить наших героев! Олли, Бэт и Бобси переживут сильный шторм, преодолеют все препятствия и в конце концов смогут найти клад!
Но основное, что наши охотники за сокровищами поймут к концу этой гонки, что самое главное - это, конечно, семья и друзья!
Рейтинг
Качество: DVDRip
Формат: AVI
Видео кодек: XviD
Аудио кодек: AC3
Видео: XviD, 720x400 (16:9), 2260 kbps, 25 fps, 0,314 bpp
Аудио: AC3 / 5.1 / 48 kHz / 448 kbps / 16 bit

General
Complete name : D:\Торенты\Олли и сокровища пиратов.2014.DVDRip.avi
Format : AVI
Format/Info : Audio Video Interleave
File size : 1.46 GiB
Duration : 1h 16mn
Overall bit rate : 2 718 Kbps
Writing application : VirtualDubMod 1.5.10.3 | www.virtualdub-fr.org || (build 2550/release)
Writing library : VirtualDubMod build 2550/release

Video
ID : 0
Format : MPEG-4 Visual
Format profile : Advanced Simple@L5
Format settings, BVOP : 1
Format settings, QPel : No
Format settings, GMC : No warppoints
Format settings, Matrix : Custom
Codec ID : XVID
Codec ID/Hint : XviD
Duration : 1h 16mn
Bit rate : 2 260 Kbps
Width : 720 pixels
Height : 400 pixels
Display aspect ratio : 16:9
Frame rate : 25.000 fps
Color space : YUV
Chroma subsampling : 4:2:0
Bit depth : 8 bits
Scan type : Progressive
Compression mode : Lossy
Bits/(Pixel*Frame) : 0.314
Stream size : 1.21 GiB (83%)
Writing library : XviD 73

Audio
ID : 1
Format : AC-3
Format/Info : Audio Coding 3
Mode extension : CM (complete main)
Codec ID : 2000
Duration : 1h 16mn
Bit rate mode : Constant
Bit rate : 448 Kbps
Channel(s) : 6 channels
Channel positions : Front: L C R, Side: L R, LFE
Sampling rate : 48.0 KHz
Bit depth : 16 bits
Compression mode : Lossy
Stream size : 246 MiB (16%)
Alignment : Split accross interleaves
Interleave, duration : 40 ms (1.00 video frame)
Interleave, preload duration : 500 ms
pb.wtf



Скачать Олли и сокровища пиратов через торрент http://i62.fastpic.ru/big/2014/0526/08/3bddaaf2d2b02515a9747d5ab5e8b008.jpg Скачать фильм Олли и сокровища пиратов через торрент бесплантно в хорошем качестве Описание: К подводным лодками Олли и Бэт присоединяется их друг Бобси, который совершенно убежден, что является потомком «Пи-Ратов» - ... 10 10 26
Info! Золотая раздача, скачанное не засчитывается.
Торрент: Зарегистрирован [2014-05-29 08:20] · скачан: 892 раз
Статус: √ проверено
Размер: 1.46 GB
Как cкачать? Как скачать Олли и сокровища пиратов через торрент | qTorrent

% Раздел Тема Автор DL S | L
Зарубежные Мультфильмы (DVD) [ 3.27 GB ] Олли и сокровища пиратов / Dive Olly Dive and the Pirate Treasure [2014 мультфильм детский DVD5] R5 voovaz Скачать
1 | 2

28-11-2019 20:33  

Отключить всю рекламу на сайте

    Дорогой пользователь! Огромная просьба, поблагодарите релизера, оцените раздачу и оставьте свои комментарий, если Вы скачали Олли и сокровища пиратов через торрент бесплатно! Внесите свою лепту в развитие PiratBit!
    Комментировать посты могут только пользователи прошедшие не сложную регистрацию
    Показать сообщения:    

    Олли и сокровища пиратов через торрент
    Скачать бесплатно Олли и сокровища пиратов
    Олли и сокровища пиратов скачать торрент
    Олли и сокровища пиратов смотреть онлайн
    Cкачать фильм Олли и сокровища пиратов бесплатно
    Олли и сокровища пиратов скачать торрент в хорошем качестве
    Олли и сокровища пиратов смотреть онлайн бесплатно в хорошем качестве


    Вы не можете начинать темы
    Вы не можете отвечать на сообщения
    Вы не можете редактировать свои сообщения
    Вы не можете удалять свои сообщения
    Вы не можете голосовать в опросах
    Вы не можете прикреплять файлы к сообщениям
    Вы можете скачивать файлы