2 сезон

iTunes

MVO

1

2 сезон

iTunes

iTunes

1 сезон

RePack

30

Ultimate

ВАЖНО

ИГРА 18+

pack

RePack

MK11
pack

Легкие деньги

RePack

jed

RePack

fifa19

RePack

RDR2

RePack

NEED FOR SPEED™ PAYBACK

4 сезон

9 сезон

Бесстыжие 9 сезон

Все сериалы

все сериалы на PB.wtf

RePack

FAR CRY 5

Anonymous, добрый день, мы не успеваем собрать деньги на оплату серверов за декабрь и январь, помогите нам пожалуйста в это трудное время. В качестве благодарности мы отключим Вам всю рекламу на сайте (укажите свой ник в строку Ваше имя)!

×
  
Magnet ссылка

Жасмин / Blue Jasmine (Вуди Аллен) [2013 г., комедия, драма, BDRip, Дубляж, Лицензия] pb.wtf

Жасмин через торрент pb.wtf

Размер: 2.19 GB | Добавлен: 6 лет 7 мес. назад | Торрент скачан:347 раз
Скачать  

28-05-2014 17:57 Жасмин Скачать торрент  

Жасмин / Blue Jasmine
Год выпуска: 2013
Страна: США / Perdido Productions
Жанр: комедия, драма
Продолжительность: 01:34:04
Перевод: Дубляж (Лицензия)

Режиссер: Вуди Аллен

В ролях: Кейт Бланшетт, Салли Хокинс, Алек Болдуин, Бобби Каннавале, Питер Сарсгаард, Луис С.К., Эндрю Дайс Клэй, Дэниэл Дженкс, Майкл Стулбарг,Макс Рутерфорд

Описание: После того как все в ее жизни разваливается на части, в том числе и брак с богатым бизнесменом, светская жительница Нью-Йорка Жасмин переезжает в скромную квартиру сестры в Сан-Франциско, чтобы попытаться взять себя в руки и жить дальше.

Качество: BDRip (Рип с Blu-ray 1080i AVC DTS-HD 5.0)
Формат: AVI
Видео кодек: XviD
Аудио кодек: AC3
Видео: 720x400 (1.80:1), 25 fps, XviD build 50 ~2874 kbps avg, 0.40 bit/pixel
Аудио: 48 kHz, AC3 Dolby Digital, 3/2 (L,C,R,l,r) ch, ~448 kbps


Общее
Полное имя : H:\кино\Жасмин.2013.BDRip.avi
Формат : AVI
Формат/Информация : Audio Video Interleave
Профиль формата : OpenDML
Размер файла : 2,19 Гбайт
Продолжительность : 1 ч. 34 м.
Общий поток : 3330 Кбит/сек
Программа кодирования : VirtualDubMod 1.5.10.3 | www.virtualdub-fr.org || (build 2550/release)
Библиотека кодирования : VirtualDubMod build 2550/release

Видео
Идентификатор : 0
Формат : MPEG-4 Visual
Профиль формата : Advanced Simple@L5
Параметр BVOP формата : 2
Параметр QPel формата : Нет
Параметр GMC формата : Без точки перехода
Параметр матрицы формата : Default (H.263)
Идентификатор кодека : XVID
Идентификатор кодека/Подсказка : XviD
Продолжительность : 1 ч. 34 м.
Битрейт : 2870 Кбит/сек
Ширина : 720 пикселей
Высота : 400 пикселей
Соотношение сторон : 16:9
Частота кадров : 25,000 кадров/сек
Цветовое пространство : YUV
Субдискретизация насыщенности : 4:2:0
Битовая глубина : 8 бит
Тип развёртки : Прогрессивная
Метод сжатия : С потерями
Бит/(Пиксели*Кадры) : 0.399
Размер потока : 1,89 Гбайт (86%)
Библиотека кодирования : XviD 1.2.1 (UTC 2008-12-04)

Аудио
Идентификатор : 1
Формат : AC-3
Формат/Информация : Audio Coding 3
Расширение режима : CM (complete main)
Параметр Endianness формата : Big
Идентификатор кодека : 2000
Продолжительность : 1 ч. 34 м.
Вид битрейта : Постоянный
Битрейт : 448 Кбит/сек
Каналы : 6 каналов
Channel(s)_Original : 5 каналов
Расположение каналов : Front: L C R, Side: L R
Частота : 48,0 КГц
Битовая глубина : 16 бит
Метод сжатия : С потерями
Размер потока : 301 Мбайт (13%)
Выравнивание : Разделение по промежуткам
Продолжительность промежутка : 40 мс. (1,00 видеокадр)
Время предзагрузки промежутка : 500 мс.

pb.wtf



Скачать Жасмин через торрент http://pic.kartinco.top/images/6/ftkgw.jpg Скачать фильм Жасмин через торрент бесплантно в хорошем качестве Описание: После того как все в ее жизни разваливается на части, в том числе и брак с богатым бизнесменом, светская жительница Нью-Йорка ... 9.7 10 10
Торрент: Зарегистрирован [2014-05-28 17:57] · скачан: 347 раз
Статус: √ проверено
Размер: 2.19 GB
Как cкачать? Как скачать Жасмин через торрент | UTorrent

% Раздел Тема Автор DL S | L
Фильмы [HD 720p, 1080p] (Хороший звук DUB, MVO) [ 9.24 GB ] Жасмин / Blue Jasmine [ 2013 BDRip 1080p ] DUB Ворон Скачать
1 | 0
Фильмы (DVD фильмы) [ 4.33 GB ] Жасмин / Blue Jasmine [2013 DVD5] R5 voovaz Скачать
1 | 0
Фильмы 2013 [DVDrip, WEB-DLRip, HDrip] [ 1.47 GB ] Жасмин / Blue Jasmine [2013 WebDLRip ] iTunnes Drakosha Скачать
1 | 0
Фильмы [HD 720p, 1080p] (Хороший звук DUB, MVO) [ 6.27 GB ] Жасмин / Blue Jasmine [ 2013 BDRip 720p ] DUB Ворон Скачать
1 | 0
HD ролики [ 1.42 GB ] О Жасмин! / Ohh Jasmine [2013 shaved skinny latina sex 1on1 blow jobs squirting HD 720p] sheker187 Скачать
1 | 0

28-11-2019 20:33  

Отключить всю рекламу на сайте

28-05-2014 19:44 Жасмин Скачать торрент  

Комедия/драма: баланс силы, мой юный падаван.pb.wtf



30-05-2014 13:15 Жасмин Скачать торрент  

Плюсы фильма: В фильме есть, как интересные моменты, жизненные моменты, так и интересные диалоги. Актеры играют неплохо. Работа оператора отличная. Минусы фильма: Фильм затянут. В нем много разговоров. Главная героиня вызывает смешанные чувства, но больше, наверно, негатива. Ну а получить удовольствие от фильма, если главную героиню прибить иногда охота, тяжело. Концовка фильма недосказанная какая-то. Столько времени ждешь какой-то интересной развязки, а тебе показывают такую недосказанную концовку, и просто жаль потраченного времени на просмотр. В общем, я бы оценил этот фильм на 5 баллов из 10. На больше он не тянет.pb.wtf



    Дорогой пользователь! Огромная просьба, поблагодарите релизера, оцените раздачу и оставьте свои комментарий, если Вы скачали Жасмин через торрент бесплатно! Внесите свою лепту в развитие PiratBit!
    Комментировать посты могут только пользователи прошедшие не сложную регистрацию
    Показать сообщения:    

    Жасмин через торрент
    Скачать бесплатно Жасмин
    Жасмин скачать торрент
    Жасмин смотреть онлайн
    Cкачать фильм Жасмин бесплатно
    Жасмин скачать торрент в хорошем качестве
    Жасмин смотреть онлайн бесплатно в хорошем качестве


    Вы не можете начинать темы
    Вы не можете отвечать на сообщения
    Вы не можете редактировать свои сообщения
    Вы не можете удалять свои сообщения
    Вы не можете голосовать в опросах
    Вы не можете прикреплять файлы к сообщениям
    Вы можете скачивать файлы