Всегда рабочее зеркало без VPN и Proxy просто перед .vidak.icu напиши любое слово или цифру, Пример http://yb3y.vidak.icu

Лицензия

MVO

1 сезон

1

1 сезон

iTunes

1 сезон

13

1 сезон

Deluxe

pack

Рекомендуем

Repack

30

ВАЖНО

RePack

MK11

RePack

jed

RePack

fifa19

RePack

RDR2

RePack

NEED FOR SPEED™ PAYBACK

Кинопоиск HD

6 сезон

 Острые козырьки 6 сезон

Все сериалы

все сериалы на PB.wtf

RePack

FAR CRY 5
  
Magnet ссылка

Лего. Фильм / The Lego Movie (Фил Лорд, Кристофер Миллер) [2014 г., HDRip, Дубляж iTunes] pb.wtf

Лего. Фильм через торрент pb.wtf

Раздают: 1 [ 0 KB/s ]
Размер: 749 MB | Добавлен: 8 лет 2 мес. назад | Торрент скачан:677 раз
Смотреть онлайн Лего. Фильм | Скачать    Ребята, помогите собрать деньги на оплату серверов!!!

29-05-2014 08:34 Лего. Фильм Скачать торрент  

Лего. Фильм / The Lego Movie
Год выпуска: 2014
Страна: США
Перевод: Дубляж iTunes
Субтитры: нет

Режиссер: Фил Лорд, Кристофер Миллер

Бюджет: $60 000 000
Премьера в мире: 1 февраля 2014, ...

возраст зрителям, достигшим 6 лет



В ролях: Крис Прэтт, Уилл Феррелл, Элизабет Бэнкс, Уилл Арнетт, Лиам Нисон, Морган Фриман, Элисон Бри, Дэвид Берроуз, Энтони Дэниелс, Чарли Дэй

Описание: Обычная лего-фигурка соглашается присоединиться к походу против злого лего-диктатора, планирующего склеить вместе всю вселенную…

Качество: HDRip исх.The.Lego.Movie.2014.1080p.BluRay.x264-BLOW [PublicHD]
Формат: AVI
Видео кодек: XviD
Аудио кодек: MP3
Видео: 624x256 (2.44:1), 23.976 fps, XviD build 73 ~903 kbps avg, 0.24 bit/pixel
Аудио#1: 48 kHz, MPEG Layer 3, 2 ch, ~128.00 kbps avg
Релиз от: Deadmauvlad
скриншот   скриншот   скриншот   скриншот   скриншот   скриншот   скриншот   скриншот   скриншот  

Общее
Полное имя : D:\Рипы выкладка [Deadmauvlad]\Рипы готовые\LEGO.2014.HDRip.Deadmauvlad.745.MB.avi
Формат : AVI
Формат/Информация : Audio Video Interleave
Размер файла : 749 Мбайт
Продолжительность : 1 ч. 40 м.
Общий поток : 1041 Кбит/сек
Название фильма : LEGO.2014.HDRip.Deadmauvlad.745.MB
Режиссёр : Deadmauvlad
Жанр : Genre_00+
Программа кодирования : VirtualDubMod 1.5.10.3 | www.virtualdub-fr.org || (build 2550/release)
Формат оригинала/Имя : Мультфильм
Правообладатель : Goldenshara
Примечание : iTunes

Видео
Идентификатор : 0
Формат : MPEG-4 Visual
Профиль формата : Advanced [email protected]
Параметр BVOP формата : 1
Параметр QPel формата : Нет
Параметр GMC формата : Без точки перехода
Параметр матрицы формата : Выборочная
Идентификатор кодека : XVID
Идентификатор кодека/Подсказка : XviD
Продолжительность : 1 ч. 40 м.
Битрейт : 904 Кбит/сек
Ширина : 624 пикселя
Высота : 256 пикселей
Соотношение сторон : 2,40:1
Частота кадров : 23,976 кадра/сек
Цветовое пространство : YUV
Субдискретизация насыщенности : 4:2:0
Битовая глубина : 8 бит
Тип развёртки : Прогрессивная
Метод сжатия : С потерями
Бит/(Пиксели*Кадры) : 0.236
Размер потока : 650 Мбайт (87%)
Библиотека кодирования : XviD 73

Аудио
Идентификатор : 1
Формат : MPEG Audio
Версия формата : Version 1
Профиль формата : Layer 3
Идентификатор кодека : 55
Идентификатор кодека/Подсказка : MP3
Продолжительность : 1 ч. 40 м.
Вид битрейта : Постоянный
Битрейт : 128 Кбит/сек
Каналы : 2 канала
Частота : 48,0 КГц
Метод сжатия : С потерями
Размер потока : 92,1 Мбайт (12%)
Выравнивание : Соединение по промежуткам
Продолжительность промежутка : 42 мс. (1,00 видеокадр)
Время предзагрузки промежутка : 504 мс.
Библиотека кодирования : LAME3.99r
Настройки программы : -m s -V 4 -q 2 -lowpass 17 -b 128

pb.wtf



Скачать Лего. Фильм через торрент https://pic1.kartinco.top/images/61/skif5.jpg Скачать, смотреть онлайн Лего. Фильм бесплантно в хорошем качестве Описание: Обычная лего-фигурка соглашается присоединиться к походу против злого лего-диктатора, планирующего склеить вместе всю ... 9.4 10 16
Торрент: Зарегистрирован [2014-05-29 08:34] · скачан: 677 раз
Статус: √ проверено
Размер: 749 MB
Как cкачать? Как скачать Лего. Фильм через торрент | UTorrent

% Раздел Тема Автор DL S | L
Мультфильмы (48-60 fps) [ 10.62 GB ] ЛЕГО Фильм 2 / The Lego Movie 2: The Second Part [2019 мультфильм мюзикл BDRip 1080p 60 fps] DUB sheker187 Скачать
2 | 1
Зарубежные Мультфильмы (BDRip 1080p, 720p, Blu-ray, BD-Remux) [ 5.63 GB ] ЛЕГО Фильм-2 / The Lego Movie 2: The Second Part [2019 мультфильм мюзикл BDRip 720p] DUB [] bober100 Скачать
1 | 0
Ultra HD (UHD: 2K, 4K, 8K) [ 44.55 GB ] ЛЕГО Фильм 2 / The Lego Movie 2: The Second Part [2019 мультфильм мюзикл UHD BDRemux 2160p] DUB [] sheker187 Скачать
1 | 0
Ultra HD (UHD: 2K, 4K, 8K) [ 13.49 GB ] ЛЕГО Фильм 2 / The Lego Movie 2: The Second Part [2019 мультфильм мюзикл UHD BDRip 2160p] [SDR] DUB [] sheker187 Скачать
1 | 0
Зарубежные Мультфильмы (BDRip 1080p, 720p, Blu-ray, BD-Remux) [ 10.27 GB ] ЛЕГО Фильм-2 / The Lego Movie 2: The Second Part [2019 мультфильм мюзикл BDRip 1080p] DUB [] bober100 Скачать
1 | 0
3D Мультфильмы [ 6.95 GB ] ЛЕГО Фильм-2 3Д / The Lego Movie 2: The Second Part 3D [2019 мультфильм мюзикл BDRip 1080p] [Half OverUnder] DUB [] bober100 Скачать
1 | 0
Зарубежные Мультфильмы (BDRip 1080p, 720p, Blu-ray, BD-Remux) [ 44.97 GB ] ЛЕГО Фильм-2 / The Lego Movie 2: The Second Part [2019 мультфильм мюзикл Blu-ray EUR 1080p] DUB [] bober100 Скачать
1 | 0

28-11-2019 20:33  

Отключить вcю реклaмy на сайте

29-05-2014 10:48 Лего. Фильм Скачать торрент  

Скажите,стоит качать ?pb.wtf



29-05-2014 11:23 Лего. Фильм Скачать торрент  

Кирилл1710 можно и в таком качестве посмотретьpb.wtf



    Дорогой пользователь! Огромная просьба, поблагодарите релизера, оцените раздачу и оставьте свои комментарий, если Вы скачали Лего. Фильм через торрент бесплатно!
    Комментировать посты могут только пользователи прошедшие не сложную регистрацию
    Показать сообщения:    

    Лего. Фильм через торрент
    Скачать бесплатно Лего. Фильм
    Лего. Фильм скачать торрент
    Лего. Фильм смотреть онлайн
    Cкачать фильм Лего. Фильм бесплатно
    Лего. Фильм скачать торрент в хорошем качестве
    Лего. Фильм смотреть онлайн бесплатно в хорошем качестве


    Вы не можете начинать темы
    Вы не можете отвечать на сообщения
    Вы не можете редактировать свои сообщения
    Вы не можете удалять свои сообщения
    Вы не можете голосовать в опросах
    Вы не можете прикреплять файлы к сообщениям
    Вы можете скачивать файлы