Ссылка на приватное зеркало нашего сайта всего за 1$. Внимание количество ограничено!!!

2 сезон

iTunes

1 сезон

1

iTunes

iTunes

iTunes

1 сезон

RePack

30

ИГРА 18+

pack

ВАЖНО

!!Акция!!

Alien_RageХит недели

RePack

MK11
pack

Забери бонус

RePack

jed

!!Акция!!

Alien_Rage

RePack

fifa19

RePack

Assassins Creed: Odyssey

RePack

NEED FOR SPEED™ PAYBACK

4 сезон

9 сезон

Бесстыжие 9 сезон

Все сериалы

все сериалы на PB.wtf

RePack

FAR CRY 5
  

Бэтмен против Дракулы / The Batman vs Dracula: The Animated Movie (Майкл Гогуэн) [2005 г., мультфильм, фантастика, боевик, триллер, криминал, WEB-DLRip, Дубляж iTunes] pb.wtf

Бэтмен против Дракулы через торрент pb.wtf

Размер: 1.36 GB | Добавлен: 6 лет 4 мес. назад | Торрент скачан:308 раз
Скачать  

29-05-2014 13:19 Бэтмен против Дракулы Скачать торрент  

Бэтмен против Дракулы / The Batman vs Dracula: The Animated Movie
Год выпуска: 2005
Страна: США
Жанр: мультфильм, фантастика, боевик, триллер, криминал
Продолжительность: 01:23:45 [ПОЛНЫЙ Дубляж ]
Перевод: Дубляж iTunes
Субтитры: нет

Режиссер: Майкл Гогуэн

Премьера в мире: 18 октября 2005, ...



В ролях: Джефф Беннетт, Аластер Дункан, Ричард Грин, Том Кенни, Кевин Майкл Ричардсон, Рино Романо, Нил Росс, Жеймс Си, Питер Стормар, Тара Стронг

Описание: В то время как Готэм Сити спит, под прикрытием темноты, вылетают две легендарные мыши. Одна из них превращает город в армию вампиров, а другая пытается сделать все возможное, чтобы предотвратить это событие. Но Дракула - это не просто один из врагов Бэтмена, он обладает сверхъестественными способностями, скоростью и умом. Хотя даже со своим арсеналом технических приспособлений, Темный Рыцарь смертен...

Качество: WEB-DLRip
Формат: AVI
Видео кодек: XviD
Аудио кодек: MP3
Видео: 720x400 (1.80:1), 23.976 fps, XviD build 73 ~1919 kbps avg, 0.28 bit/pixel
Аудио#1: 48 kHz, AC3 Dolby Digital, 2/0 (L,R) ch, ~192.00 kbps avg [DUB]
Аудио#2: 48 kHz, AC3 Dolby Digital, 2/0 (L,R) ch, ~192.00 kbps avg [ENG]
Релиз от: DeadmauvladСемпл для ознакомления с качеством данного релиза
Общее
Полное имя : D:\Рипы выкладка [Deadmauvlad]\Рипы готовые\The.Batman.vs.Dracula.2005.WEB-DLRip.Rus.Eng_Deadmauvlad.avi
Формат : AVI
Формат/Информация : Audio Video Interleave
Размер файла : 1,36 Гбайт
Продолжительность : 1 ч. 23 м.
Общий поток : 2318 Кбит/сек
Название фильма : The.Batman.vs.Dracula.2005.WEB-DLRip.Rus.Eng.Deadmauvlad
Режиссёр : Deadmauvlad
Жанр : Genre_00+
Программа кодирования : Nandub v1.0rc2
Формат оригинала/Имя : Мультфильм
Правообладатель : Goldenshara
Примечание : iTunes

Видео
Идентификатор : 0
Формат : MPEG-4 Visual
Профиль формата : Advanced Simple@L5
Параметр BVOP формата : 1
Параметр QPel формата : Нет
Параметр GMC формата : Без точки перехода
Параметр матрицы формата : Выборочная
Идентификатор кодека : XVID
Идентификатор кодека/Подсказка : XviD
Продолжительность : 1 ч. 23 м.
Битрейт : 1920 Кбит/сек
Ширина : 720 пикселей
Высота : 400 пикселей
Соотношение сторон : 16:9
Частота кадров : 23,976 кадра/сек
Цветовое пространство : YUV
Субдискретизация насыщенности : 4:2:0
Битовая глубина : 8 бит
Тип развёртки : Прогрессивная
Метод сжатия : С потерями
Бит/(Пиксели*Кадры) : 0.278
Размер потока : 1,12 Гбайт (83%)
Библиотека кодирования : XviD 73

Аудио #1
Идентификатор : 1
Формат : AC-3
Формат/Информация : Audio Coding 3
Профиль формата : Dolby Digital
Расширение режима : CM (complete main)
Параметр Endianness формата : Big
Идентификатор кодека : 2000
Продолжительность : 1 ч. 23 м.
Вид битрейта : Постоянный
Битрейт : 192 Кбит/сек
Каналы : 2 канала
Расположение каналов : Front: L R
Частота : 48,0 КГц
Битовая глубина : 16 бит
Метод сжатия : С потерями
Размер потока : 115 Мбайт (8%)
Выравнивание : Разделение по промежуткам
Продолжительность промежутка : 42 мс. (1,00 видеокадр)
Время предзагрузки промежутка : 500 мс.

Аудио #2
Идентификатор : 2
Формат : AC-3
Формат/Информация : Audio Coding 3
Расширение режима : CM (complete main)
Параметр Endianness формата : Big
Идентификатор кодека : 2000
Продолжительность : 1 ч. 23 м.
Вид битрейта : Постоянный
Битрейт : 192 Кбит/сек
Каналы : 2 канала
Расположение каналов : Front: L R
Частота : 48,0 КГц
Битовая глубина : 16 бит
Метод сжатия : С потерями
Размер потока : 115 Мбайт (8%)
Выравнивание : Разделение по промежуткам
Продолжительность промежутка : 42 мс. (1,00 видеокадр)
Время предзагрузки промежутка : 500 мс.[/code]

Цитата:

касаемо данного релиза дубляж айтюнса отличный и отличается от DVD-шного
Длительность у DVD 1:19:56.051 у меня 01:23:45.653 (120495 frames) лучше качества (про DVD лучше промолчу sarcastic ) и звука не будет так что забирайте

скриншот   скриншот   скриншот   скриншот   скриншот   скриншот   скриншот  
pb.wtf



Скачать Бэтмен против Дракулы через торрент http://pic.kartinco.top/images/6/xu7lb.jpg Скачать фильм Бэтмен против Дракулы через торрент бесплантно в хорошем качестве Описание: В то время как Готэм Сити спит, под прикрытием темноты, вылетают две легендарные мыши. Одна из них превращает город в армию ... 9.7 10 14
Торрент: Зарегистрирован [2014-05-29 13:19] · скачан: 308 раз
Статус: √ проверено
Размер: 1.36 GB
Как cкачать? Как скачать Бэтмен против Дракулы через торрент | qTorrent



Последний раз редактировалось: Se7ven95 (2014-05-29 16:28), всего редактировалось 1 раз

28-11-2019 20:33  

Отключить всю рекламу на сайте

29-05-2014 13:29 Бэтмен против Дракулы Скачать торрент  

надо взглянуть что за мульт :sarcastic_blum: :sarcastic_blum: :sarcastic_blum:pb.wtf



29-05-2014 14:24 Бэтмен против Дракулы Скачать торрент  

Отличный мультик) смотрел давно,очень понравилсяpb.wtf



29-05-2014 15:29 Бэтмен против Дракулы Скачать торрент  

Автор, у тебя есть мультсериал этого бетмена?pb.wtf



29-05-2014 16:25 Бэтмен против Дракулы Скачать торрент  

Беллик нету мультсериала
касаемо данного релиза дубляж айтюнса отличный и отличается от DVD-шного
продолжительность у DVD 1:19:56.051 у меня 01:23:45.653 (120495 frames) лучше качества и звука не будет так что забирайте :declare:pb.wtf



    Дорогой пользователь! Огромная просьба, поблагодарите релизера, оцените раздачу и оставьте свои комментарий, если Вы скачали Бэтмен против Дракулы через торрент бесплатно! Внесите свою лепту в развитие PiratBit!
    Комментировать посты могут только пользователи прошедшие не сложную регистрацию
    Показать сообщения:    

    Бэтмен против Дракулы через торрент
    Скачать бесплатно Бэтмен против Дракулы
    Бэтмен против Дракулы скачать торрент
    Бэтмен против Дракулы смотреть онлайн
    Cкачать фильм Бэтмен против Дракулы бесплатно
    Бэтмен против Дракулы скачать торрент в хорошем качестве
    Бэтмен против Дракулы смотреть онлайн бесплатно в хорошем качестве


    Вы не можете начинать темы
    Вы не можете отвечать на сообщения
    Вы не можете редактировать свои сообщения
    Вы не можете удалять свои сообщения
    Вы не можете голосовать в опросах
    Вы не можете прикреплять файлы к сообщениям
    Вы можете скачивать файлы