Ссылка на приватное зеркало нашего сайта всего за 1$. Внимание количество ограничено!!!

2 сезон

iTunes

1 сезон

1

iTunes

iTunes

iTunes

1 сезон

RePack

30

ИГРА 18+

pack

ВАЖНО

!!Акция!!

Alien_RageХит недели

RePack

MK11
pack

Забери бонус

RePack

jed

!!Акция!!

Alien_Rage

RePack

fifa19

RePack

Assassins Creed: Odyssey

RePack

NEED FOR SPEED™ PAYBACK

4 сезон

9 сезон

Бесстыжие 9 сезон

Все сериалы

все сериалы на PB.wtf

RePack

FAR CRY 5
  

Последний рубеж / Homefront (Гэри Фледер / Gary Fleder) [2013, боевик, криминал, BDRip 1080p, [Дубляж - ["Мосфильм мастер"] pb.wtf

Последний рубеж через торрент pb.wtf

Размер: 12.67 GB | Добавлен: 6 лет 4 мес. назад | Торрент скачан:131 раз
Скачать  

29-05-2014 18:37 Последний рубеж Скачать торрент  

Последний рубеж / Homefront
«На что ты готов ради защиты своей семьи?»



Год выпуска: 2013
Страна: США
Жанр: боевик, криминал
Продолжительность: 01:40:34
Перевод: [Дубляж - ["Мосфильм мастер"]
Субтитры: Русские, Английские


Режиссер:
  • Гэри Фледер / Gary Fleder
В ролях:
  • Джейсон Стэйтем/Jason Statham Джеймс Франко/James Franco Изабела Видович/Izabela Vidovic Вайнона Райдер/Winona Ryder Кейт Босворт/Kate Bosworth Клэнси Браун/Clancy Brown Рашель Лефевр/Rachelle Lefevre Омар Бенсон Миллер/Omar Benson Miller Маркус Хестер/Marcus Hester Фрэнк Грилло/Frank Grillo Чак Зито/Chuck Zito Прюитт Тэйлор Винс/Pruitt Taylor Vince
Описание: Фил Брокер - бывший агент из отдела борьбы с наркотиками. Фил переезжает в небольшой город вместе с семьей в надежде забыть прошлое. Но он узнает, что город только со стороны кажется тихим и спокойным местом, на самом деле он кишит насилием, наркотиками, а всем этим заправляет злодей по кличке Аллигатор...


Качество: BDRip 1080p
Формат: MKV
Видео кодек: AVC
Аудио кодек: DTS
Видео: AVC, 1920x800 (2.40:1), 12013 kbps, 23,976 fps, 0,326 bpp
Аудио №1: русский / DTS / 5.1 / 48 kHz / 1510 kbps / 16 bit |Дублированный, Blu-ray|
Аудио №2: русский / DTS / 5.1 / 48 kHz / 1510 kbps / 24 bit |А. Гаврилов|
Аудио №3: русский / DTS / 5.1 / 48 kHz / 1510 kbps / 24 bit |Д. Есарев|
Аудио №4: английский / DTS / 5.1 / 48 kHz / 1510 kbps / 24 bit


Код:

General
Unique ID                                : 250373055089128606440103730024639305280 (0xBC5C18AE16C657FE92A9099801CB1640)
Complete name                            : I:\Последний рубеж (2013) BDRip 1080p.mkv
Format                                   : Matroska
Format version                           : Version 4 / Version 2
File size                                : 12.7 GiB
Duration                                 : 1h 40mn
Overall bit rate                         : 18.0 Mbps
Movie name                               : Последний рубеж / Homefront (2013)
Encoded date                             : UTC 2014-05-29 17:50:44
Writing application                      : mkvmerge v6.6.0 ('The Edge Of The In Between') built on Dec  1 2013 17:55:00
Writing library                          : libebml v1.3.0 + libmatroska v1.4.1
Attachment                               : Yes

Video
ID                                       : 1
Format                                   : AVC
Format/Info                              : Advanced Video Codec
Format profile                           : High@L4.1
Format settings, CABAC                   : Yes
Format settings, ReFrames                : 4 frames
Codec ID                                 : V_MPEG4/ISO/AVC
Duration                                 : 1h 40mn
Bit rate                                 : 12.0 Mbps
Width                                    : 1 920 pixels
Height                                   : 800 pixels
Display aspect ratio                     : 2.40:1
Frame rate                               : 23.976 fps
Color space                              : YUV
Chroma subsampling                       : 4:2:0
Bit depth                                : 8 bits
Scan type                                : Progressive
Bits/(Pixel*Frame)                       : 0.326
Stream size                              : 8.17 GiB (65%)
Title                                    : CHD
Writing library                          : x264 core 138 r2356 a1d3d17
Encoding settings                        : cabac=1 / ref=4 / deblock=1:-3:-3 / analyse=0x3:0x113 / me=umh / subme=10 / psy=1 / psy_rd=1.00:0.05 / mixed_ref=1 / me_range=32 / chroma_me=1 / trellis=2 / 8x8dct=1 / cqm=0 / deadzone=21,11 / fast_pskip=0 / chroma_qp_offset=-2 / threads=18 / lookahead_threads=1 / sliced_threads=0 / nr=0 / decimate=1 / interlaced=0 / bluray_compat=0 / constrained_intra=0 / bframes=6 / b_pyramid=2 / b_adapt=2 / b_bias=0 / direct=3 / weightb=1 / open_gop=0 / weightp=2 / keyint=250 / keyint_min=23 / scenecut=40 / intra_refresh=0 / rc=2pass / mbtree=0 / bitrate=12013 / ratetol=1.0 / qcomp=0.70 / qpmin=0 / qpmax=69 / qpstep=4 / cplxblur=20.0 / qblur=0.5 / ip_ratio=1.40 / pb_ratio=1.30 / aq=2:0.90
Language                                 : English
Default                                  : Yes
Forced                                   : No

Audio #1
ID                                       : 2
Format                                   : DTS
Format/Info                              : Digital Theater Systems
Codec ID                                 : A_DTS
Duration                                 : 1h 40mn
Bit rate mode                            : Constant
Bit rate                                 : 1 510 Kbps
Channel(s)                               : 6 channels
Channel positions                        : Front: L C R, Side: L R, LFE
Sampling rate                            : 48.0 KHz
Bit depth                                : 16 bits
Compression mode                         : Lossy
Stream size                              : 1.06 GiB (8%)
Title                                    : Дублированный, Blu-ray
Language                                 : Russian
Default                                  : Yes
Forced                                   : Yes

Audio #2
ID                                       : 3
Format                                   : DTS
Format/Info                              : Digital Theater Systems
Codec ID                                 : A_DTS
Duration                                 : 1h 40mn
Bit rate mode                            : Constant
Bit rate                                 : 1 510 Kbps
Channel(s)                               : 6 channels
Channel positions                        : Front: L C R, Side: L R, LFE
Sampling rate                            : 48.0 KHz
Bit depth                                : 24 bits
Compression mode                         : Lossy
Stream size                              : 1.06 GiB (8%)
Title                                    : А. Гаврилов
Language                                 : Russian
Default                                  : No
Forced                                   : No

Audio #3
ID                                       : 4
Format                                   : DTS
Format/Info                              : Digital Theater Systems
Codec ID                                 : A_DTS
Duration                                 : 1h 40mn
Bit rate mode                            : Constant
Bit rate                                 : 1 510 Kbps
Channel(s)                               : 6 channels
Channel positions                        : Front: L C R, Side: L R, LFE
Sampling rate                            : 48.0 KHz
Bit depth                                : 24 bits
Compression mode                         : Lossy
Stream size                              : 1.06 GiB (8%)
Title                                    : Д. Есарев
Language                                 : Russian
Default                                  : No
Forced                                   : No

Audio #4
ID                                       : 5
Format                                   : DTS
Format/Info                              : Digital Theater Systems
Codec ID                                 : A_DTS
Duration                                 : 1h 40mn
Bit rate mode                            : Constant
Bit rate                                 : 1 510 Kbps
Channel(s)                               : 6 channels
Channel positions                        : Front: L C R, Side: L R, LFE
Sampling rate                            : 48.0 KHz
Bit depth                                : 24 bits
Compression mode                         : Lossy
Stream size                              : 1.06 GiB (8%)
Title                                    : Оригинал
Language                                 : English
Default                                  : No
Forced                                   : No

Text #1
ID                                       : 6
Format                                   : UTF-8
Codec ID                                 : S_TEXT/UTF8
Codec ID/Info                            : UTF-8 Plain Text
Title                                    : Full
Language                                 : Russian
Default                                  : No
Forced                                   : No

Text #2
ID                                       : 7
Format                                   : UTF-8
Codec ID                                 : S_TEXT/UTF8
Codec ID/Info                            : UTF-8 Plain Text
Title                                    : Full
Language                                 : English
Default                                  : No
Forced                                   : No

Text #3
ID                                       : 8
Format                                   : UTF-8
Codec ID                                 : S_TEXT/UTF8
Codec ID/Info                            : UTF-8 Plain Text
Title                                    : SDH
Language                                 : English
Default                                  : No
Forced                                   : No

Menu
00:00:00.000                             : en:00:00:00.000
00:04:55.462                             : en:00:04:55.462
00:09:14.095                             : en:00:09:14.095
00:14:55.853                             : en:00:14:55.853
00:21:42.426                             : en:00:21:42.426
00:25:03.001                             : en:00:25:03.001
00:31:23.215                             : en:00:31:23.215
00:34:04.000                             : en:00:34:04.000
00:39:01.089                             : en:00:39:01.089
00:45:47.995                             : en:00:45:47.995
00:49:29.258                             : en:00:49:29.258
00:55:16.480                             : en:00:55:16.480
01:01:55.420                             : en:01:01:55.420
01:08:56.174                             : en:01:08:56.174
01:12:27.635                             : en:01:12:27.635
01:16:00.973                             : en:01:16:00.973
01:19:15.250                             : en:01:19:15.250
01:24:02.621                             : en:01:24:02.621
01:29:39.124                             : en:01:29:39.124
01:35:16.961                             : en:01:35:16.961

скриншот   скриншот   скриншот   скриншот   pb.wtf



Скачать Последний рубеж через торрент http://i64.fastpic.ru/big/2014/0529/33/28df482fefe904ef697f12205b79f133.png Скачать фильм Последний рубеж через торрент бесплантно в хорошем качестве Описание: Фил Брокер - бывший агент из отдела борьбы с наркотиками. Фил переезжает в небольшой город вместе с семьей в надежде забыть ... 9.8 10 10
Info! Золотая раздача, скачанное не засчитывается.
Торрент: Зарегистрирован [2014-05-29 18:37] · скачан: 131 раз
Статус: √ проверено
Размер: 12.67 GB
Как cкачать? Как скачать Последний рубеж через торрент | qTorrent

% Раздел Тема Автор DL S | L
Фильмы (DVD фильмы) [ 5.22 GB ] Последний рубеж / Homefront [2013 DVD9] R5 voovaz Скачать
1 | 0
Фильмы 2013 [DVDrip, WEB-DLRip, HDrip] [ 1.45 GB ] Последний рубеж / Homefront [2013 BDRip / DUB Ворон Скачать
1 | 0
Фильмы (Blu-ray, BD-Remux, HDDVD) [ 37.26 GB ] Последний рубеж / Homefront [2013 Blu-ray [ - ["Мосфильм мастер"] Бумер Скачать
1 | 0
Фильмы 2013 [DVDrip, WEB-DLRip, HDrip] [ 1.46 GB ] Последний рубеж / Homefront [2013 HDRip-AVC] [ - ["Мосфильм мастер"]] От R.G. PiratFilms White Smoke Скачать
1 | 0
Фильмы (Blu-ray, BD-Remux, HDDVD) [ 23.56 GB ] Последний рубеж / Homefront [2013 BD-Remux Д [ - ["Мосфильм мастер"] Seedtank Скачать
1 | 0
Фильмы 2013 [DVDrip, WEB-DLRip, HDrip] [ 1.46 GB ] Последний рубеж / Homefront [2013 BDRip-AVC] [ - ["Мосфильм мастер"] potroks Скачать
1 | 0
Фильмы [HD 720p, 1080p] (Хороший звук DUB, MVO) [ 5.77 GB ] Последний рубеж / Homefront [2013 BDRip 720p] [ - ["Мосфильм мастер"] potroks Скачать
1 | 0


Последний раз редактировалось: Seedtank (2014-05-30 10:56), всего редактировалось 6 раз(а)

28-11-2019 20:33  

Отключить всю рекламу на сайте

29-05-2014 18:37 Последний рубеж Скачать торрент  

Видеоряд от CHD.
Сборка Seedtank.
Вшита обложка.
pb.wtf



    Дорогой пользователь! Огромная просьба, поблагодарите релизера, оцените раздачу и оставьте свои комментарий, если Вы скачали Последний рубеж через торрент бесплатно! Внесите свою лепту в развитие PiratBit!
    Комментировать посты могут только пользователи прошедшие не сложную регистрацию
    Показать сообщения:    

    Последний рубеж через торрент
    Скачать бесплатно Последний рубеж
    Последний рубеж скачать торрент
    Последний рубеж смотреть онлайн
    Cкачать фильм Последний рубеж бесплатно
    Последний рубеж скачать торрент в хорошем качестве
    Последний рубеж смотреть онлайн бесплатно в хорошем качестве


    Вы не можете начинать темы
    Вы не можете отвечать на сообщения
    Вы не можете редактировать свои сообщения
    Вы не можете удалять свои сообщения
    Вы не можете голосовать в опросах
    Вы не можете прикреплять файлы к сообщениям
    Вы можете скачивать файлы