Мега распродажа FORZA HORIZON 4 ULTIMATE+ВСЕ DLC+ОНЛАЙН всего за 499р. 349 руб. (супер цена). Внимание количество ограничено!!!

iTunes

1+1

iTunes

мы

iTunes

1

1 сезон

Чернобыль

1 сезон

Ральф против интернета

Лицензия

ПШазам

8 сезон

Игра престолов

Лицензия

30
pack

ВАЖНО

!!Акция!!

Alien_RageХит недели

RePack

Resident Evil 21

ИГРА 18+

pack

RePack

Metro:Exodus

!!Акция!!

Alien_Rage

RePack

fifa19

RePack

Assassins Creed: Odyssey

RePack

NEED FOR SPEED™ PAYBACK

3 сезон

9 сезон

Бесстыжие 9 сезон

Все сериалы

все сериалы на PB.wtf

RePack

FAR CRY 5
Ребята, катастрофически не хватает 2730р. для оплаты серверов за ИЮНЬ (всвязи с блокировками трафик упал в 3 раза), 1-2р., выручайте.
  

Клянёмся защищать / Серии: 1-8 из 8) (Вячеслав Никифоров) [2014 г., Боевик, криминал, детектив, SATRip] pb.wtf

Клянёмся защищать через торрент pb.wtf

Размер: 4.24 GB | Добавлен: 5 лет 1 мес. назад | Торрент скачан:861 раз
Скачать  

30-05-2014 23:17 Клянёмся защищать Скачать торрент  

Клянёмся защищать Год выпуска: 2014
Страна: Россия
Жанр: Боевик, криминал, детектив
Продолжительность: 00:45:00 серия

Режиссер: Вячеслав Никифоров

В ролях: Кирилл Плетнёв, Родион Нахапетов, Дмитрий Исаев, Агния Дитковските, Антон Пампушный, Денис Бургазлиев, Анна Казючиц

Описание: В районе, который курирует майор Началов, действует подпольная лаборатория по производству метамфетамина. От "паленого" наркотика умирают люди. Курсанты высшего учебного заведения МВД - Харламов, Кречетов, Царев и Ушаков заканчивают обучение, осталось несколько дней до диплома. У Жени Кречетова – бурный роман с дочерью Началова, Надеждой. Курсант Харламов допускает конфликт с руководством, в результате чего оказывается под угрозой отчисления. Майор Началов на свой страх и риск берет курсантов к себе в новый отдел, убивая двух зайцев – спасает парней от неприятностей и получает новых, не засвеченных и не коррумпированных

Качество: SATRip
Формат: AVI
Видео кодек: XviD
Аудио кодек: AC3
Видео: MPEG4, XviD, 720x400 (16:9), 25.000 fps, 1 705 Kbps (0.237 bit/pixel)
Аудио: AC-3, 48.0 KHz, 2 ch, 192 Kbps, CBR
скриншот   скриншот   скриншот   скриншот   скриншот   скриншот   скриншот   скриншот  

Код:

Формат                                   : AVI
Формат/Информация                        : Audio Video Interleave
Размер файла                             : 552 Мбайт
Продолжительность                        : 40 м.
Общий поток                              : 1907 Кбит/сек
Программа кодирования                    : VirtualDubMod 1.5.10.3 | www.virtualdub-fr.org || (build 2550/release)
Библиотека кодирования                   : Boilsoft AVI tool build 1/release

Видео
Идентификатор                            : 0
Формат                                   : MPEG-4 Visual
Профиль формата                          : Advanced Simple@L5
Параметр BVOP формата                    : 1
Параметр QPel формата                    : Нет
Параметр GMC формата                     : Без точки перехода
Параметр матрицы формата                 : Выборочная
Идентификатор кодека                     : XVID
Идентификатор кодека/Подсказка           : XviD
Продолжительность                        : 40 м.
Битрейт                                  : 1705 Кбит/сек
Ширина                                   : 720 пикселей
Высота                                   : 400 пикселей
Соотношение сторон                       : 16:9
Частота кадров                           : 25,000 кадров/сек
Цветовое пространство                    : YUV
Субдискретизация насыщенности            : 4:2:0
Битовая глубина                          : 8 бит
Тип развёртки                            : Прогрессивная
Метод сжатия                             : С потерями
Бит/(Пиксели*Кадры)                      : 0.237
Размер потока                            : 494 Мбайт (89%)
Библиотека кодирования                   : XviD 73

Аудио
Идентификатор                            : 1
Формат                                   : AC-3
Формат/Информация                        : Audio Coding 3
Расширение режима                        : CM (complete main)
Параметр Endianness формата              : Big
Идентификатор кодека                     : 2000
Продолжительность                        : 40 м.
Вид битрейта                             : Постоянный
Битрейт                                  : 192 Кбит/сек
Каналы                                   : 2 канала
Расположение каналов                     : Front: L R
Частота                                  : 48,0 КГц
Битовая глубина                          : 16 бит
Метод сжатия                             : С потерями
Размер потока                            : 55,6 Мбайт (10%)
Выравнивание                             : Разделение по промежуткам
Продолжительность промежутка             : 40  мс. (1,00 видеокадр)
Время предзагрузки промежутка            : 500  мс.


pb.wtf



Скачать Клянёмся защищать через торрент http://pic.kartinco.top/new/img/2014-05/31/7vu0ctlca8phkmxa9eo5by5w8.jpg Скачать фильм Клянёмся защищать через торрент бесплантно в хорошем качестве Описание: В районе, который курирует майор Началов, действует подпольная лаборатория по производству метамфетамина. От "паленого" наркотика ... 10 10 31
Info! Золотая раздача, скачанное не засчитывается.
Торрент: Зарегистрирован [2014-05-30 23:17] · скачан: 861 раз
Статус: √ проверено
Размер: 4.24 GB
Как cкачать? Как скачать Клянёмся защищать через торрент | qTorrent

% Раздел Тема Автор DL S | L
Наши сериалы [ 10.4 GB ] Клянёмся защищать / Сезон: 1 / Серии: 1-8 из 8 [2014 WEB-DL 1080p] bober100 Скачать
3 | 0


>> Регистрируемся здесь <<






Отзывы и комментарии о схеме читаем и пишем здесь: ---> Отзывы и комментарии о схеме

Новые благодарочки в телеграм довольных пользователей:
скриншот   скриншот   скриншот   скриншот   скриншот
    Дорогой пользователь! Огромная просьба, поблагодарите релизера, оцените раздачу и оставьте свои комментарий, если Вы скачали Клянёмся защищать через торрент бесплатно! Внесите свою лепту в развитие PiratBit!
    Комментировать посты могут только пользователи прошедшие не сложную регистрацию
    Показать сообщения:    

    Клянёмся защищать через торрент
    Скачать бесплатно Клянёмся защищать
    Клянёмся защищать скачать торрент
    Клянёмся защищать смотреть онлайн
    Cкачать фильм Клянёмся защищать бесплатно
    Клянёмся защищать скачать торрент в хорошем качестве
    Клянёмся защищать смотреть онлайн бесплатно в хорошем качестве


    Вы не можете начинать темы
    Вы не можете отвечать на сообщения
    Вы не можете редактировать свои сообщения
    Вы не можете удалять свои сообщения
    Вы не можете голосовать в опросах
    Вы не можете прикреплять файлы к сообщениям
    Вы можете скачивать файлы