Ссылка на приватное зеркало нашего сайта всего за 1$. Внимание количество ограничено!!!

2 сезон

iTunes

1 сезон

1

2 сезон

2 сезон

iTunes

1 сезон

RePack

30

Новинка

ВАЖНО

ИГРА 18+

pack

RePack

MK11
pack

Забери бонус

RePack

jed

!!Акция!!

Alien_Rage

RePack

fifa19

RePack

Assassins Creed: Odyssey

RePack

NEED FOR SPEED™ PAYBACK

4 сезон

9 сезон

Бесстыжие 9 сезон

Все сериалы

все сериалы на PB.wtf

RePack

FAR CRY 5
  

Старая закалка / Старая школа / Old School / Сезон: 1 / серия 1-8 из 8 (Грегор Джордан / Gregor Jordan / Пол Оливер / Paul Olivier) [ 2014, Австралия, криминал, детектив, PDTVRip] MVO (BaibaKo) pb.wtf

Старая закалка через торрент pb.wtf

Размер: 5.75 GB | Добавлен: 6 лет 4 мес. назад | Торрент скачан:20 раз
Скачать  

31-05-2014 01:53 Старая закалка Скачать торрент  

Старая закалка / Старая школа / Old School
Год выпуска: 2014
Страна: Австралия
Жанр: криминал, детектив
Продолжительность: ~00:52:45 (Серия)
Перевод: Профессиональный (многоголосый, закадровый)(BaibaKo)
Субтитры: Нет
Режиссер: Грегор Джордан / Gregor Jordan / Пол Оливер / Paul Olivier
В ролях:
Брайан Браун, Сэм Нил, Малкольм Кеннард, Гарри Гринвуд, Джонатан Чан, Гленн Чоу, Вэл Атанассиу, Кейт Бокс, Юр Кович
Описание:
Вышедший на пенсию полицейский Тед МакКейб и отошедший от дел уголовник Ленни Каэл объединяют усилия, чтобы раскрыть старое дело и заработать деньжат, при этом пытаясь избежать пристального внимания со стороны полиции и мира.
Качество: PDTVRip
Формат: AVI
Видео кодек: XviD
Аудио кодек: MP3
Видео: 1518 Кбит/сек, 704*400 (16:9), в 25,000 кадров/сек, MPEG-4 Visual (XviD)
Аудио №1: Русский 192 Кбит/сек, 48,0 КГц, 2 канала, MPEG Audio (MP3)
Аудио №2: Английский 192 Кбит/сек, 48,0 КГц, 2 канала, MPEG Audio (MP3)
Мировая премьера: 23 мая 2014 года
Рейтинг
Раздача ведётся путём добавления новых серийДобавлена 8 заключительная серия (16.07.2014)Просьба перекачать торрент файл

Внимание! Раздача ведётся путём добавления новых серий; при каждом добавлении создаётся новый торрент. Чтобы начать докачку новой серии, пользователям необходимо сделать следующее:
(1) остановить скачивание,
(2) удалить старый торрент у себя из клиента (старые серии удалять не надо),
(3) скачать новый торрент и запустить его у себя в клиенте вместо старого, при этом указать клиенту путь в старую папку куда и должно происходить скачивание новых серий.
Ваш клиент при этом должен произвести хеширование (проверку) старой папки (если не производит сам - помогите ему сделать это), и будет докачивать только те серии которых у вас ещё нет. Старые серии при этом не удаляются, а продолжают раздаваться!
Eсли вы уже удалили старые серии, то предотвратить повторную закачку старых серий можно, отжав галочку в соответсвующих местах при запуске нового торрента. По возможности, желательно не удалять старые серии как можно дольше чтобы релизёр не столько продолжал раздавать старые серии, а смог сконцентрироваться на новых.

Общее
Полное имя : H:\ТОРРЕНТЫ\Старая закалка 2014\Old.School.s01e01.PDTVRip.XviD.Rus.Eng.BaibaKo.tv.avi
Формат : AVI
Формат/Информация : Audio Video Interleave
Размер файла : 725 Мбайт
Продолжительность : 52 м.
Общий поток : 1917 Кбит/сек
Программа кодирования : VirtualDubMod 1.5.10.2 (build 2540/release)
Библиотека кодирования : VirtualDubMod build 2540/release

Видео
Идентификатор : 0
Формат : MPEG-4 Visual
Профиль формата : Advanced Simple@L5
Параметр BVOP формата : 2
Параметр QPel формата : Нет
Параметр GMC формата : Без точки перехода
Параметр матрицы формата : Default (H.263)
Идентификатор кодека : XVID
Идентификатор кодека/Подсказка : XviD
Продолжительность : 52 м.
Битрейт : 1518 Кбит/сек
Ширина : 704 пикселя
Высота : 400 пикселей
Соотношение сторон : 16:9
Частота кадров : 25,000 кадров/сек
Цветовое пространство : YUV
Субдискретизация насыщенности : 4:2:0
Битовая глубина : 8 бит
Тип развёртки : Прогрессивная
Метод сжатия : С потерями
Бит/(Пиксели*Кадры) : 0.216
Размер потока : 574 Мбайт (79%)
Библиотека кодирования : XviD 1.2.1 (UTC 2008-12-04)

Аудио #1
Идентификатор : 1
Формат : MPEG Audio
Версия формата : Version 1
Профиль формата : Layer 3
Режим : Joint stereo
Расширение режима : MS Stereo
Идентификатор кодека : 55
Идентификатор кодека/Подсказка : MP3
Продолжительность : 52 м.
Вид битрейта : Постоянный
Битрейт : 192 Кбит/сек
Каналы : 2 канала
Частота : 48,0 КГц
Метод сжатия : С потерями
Размер потока : 72,7 Мбайт (10%)
Выравнивание : Соединение по промежуткам
Продолжительность промежутка : 40 мс. (1,00 видеокадр)
Время предзагрузки промежутка : 504 мс.
Библиотека кодирования : LAME3.99Ђ

Аудио #2
Идентификатор : 2
Формат : MPEG Audio
Версия формата : Version 1
Профиль формата : Layer 3
Режим : Joint stereo
Идентификатор кодека : 55
Идентификатор кодека/Подсказка : MP3
Продолжительность : 52 м.
Вид битрейта : Постоянный
Битрейт : 192 Кбит/сек
Каналы : 2 канала
Частота : 48,0 КГц
Метод сжатия : С потерями
Размер потока : 72,7 Мбайт (10%)
Выравнивание : Соединение по промежуткам
Продолжительность промежутка : 40 мс. (1,00 видеокадр)
Время предзагрузки промежутка : 504 мс.
Библиотека кодирования : LAME3.99.5

скриншот   скриншот   скриншот   скриншот   скриншот   скриншот   скриншот   скриншот   скриншот   скриншот  

pb.wtf



Скачать Старая закалка через торрент http://pic.kartinco.top/images/6/rns9y.jpg Скачать фильм Старая закалка через торрент бесплантно в хорошем качестве Описание:Вышедший на пенсию полицейский Тед МакКейб и отошедший от дел уголовник Ленни Каэл объединяют усилия, чтобы раскрыть старое дело и ... 9.3 10 9
Info! Золотая раздача, скачанное не засчитывается.
Торрент: Зарегистрирован [2014-07-16 00:38] · скачан: 20 раз
Статус: √ проверено
Размер: 5.75 GB
Как cкачать? Как скачать Старая закалка через торрент | qTorrent



Последний раз редактировалось: GEKADOL (2014-07-16 00:38), всего редактировалось 3 раз(а)

28-11-2019 20:33  

Отключить всю рекламу на сайте

    Дорогой пользователь! Огромная просьба, поблагодарите релизера, оцените раздачу и оставьте свои комментарий, если Вы скачали Старая закалка через торрент бесплатно! Внесите свою лепту в развитие PiratBit!
    Комментировать посты могут только пользователи прошедшие не сложную регистрацию
    Показать сообщения:    

    Старая закалка через торрент
    Скачать бесплатно Старая закалка
    Старая закалка скачать торрент
    Старая закалка смотреть онлайн
    Cкачать фильм Старая закалка бесплатно
    Старая закалка скачать торрент в хорошем качестве
    Старая закалка смотреть онлайн бесплатно в хорошем качестве


    Вы не можете начинать темы
    Вы не можете отвечать на сообщения
    Вы не можете редактировать свои сообщения
    Вы не можете удалять свои сообщения
    Вы не можете голосовать в опросах
    Вы не можете прикреплять файлы к сообщениям
    Вы можете скачивать файлы