Ссылка на приватное зеркало нашего сайта всего за 1$. Внимание количество ограничено!!!

2 сезон

iTunes

1 сезон

1

iTunes

iTunes

iTunes

1 сезон

RePack

30

ИГРА 18+

pack

ВАЖНО

!!Акция!!

Alien_RageХит недели

RePack

MK11
pack

Забери бонус

RePack

jed

!!Акция!!

Alien_Rage

RePack

fifa19

RePack

Assassins Creed: Odyssey

RePack

NEED FOR SPEED™ PAYBACK

4 сезон

9 сезон

Бесстыжие 9 сезон

Все сериалы

все сериалы на PB.wtf

RePack

FAR CRY 5
  

Лего. Фильм / The Lego Movie (Фил Лорд / Phil Lord , Кристофер Миллер / Christopher Miller) [2014 г., Мультфильм, фэнтези, комедия, приключения, семейный, BDRip-AVC] DUB Лицензия pb.wtf

Лего. Фильм через торрент pb.wtf

Раздают: 1 [ 0 KB/s ]
Размер: 2.18 GB | Добавлен: 6 лет 4 мес. назад | Торрент скачан:2283 раза
Скачать  

31-05-2014 13:33 Лего. Фильм Скачать торрент  

Лего. Фильм / The Lego Movie
Год выпуска: 2014
Жанр: Мультфильм, фэнтези, комедия, приключения, семейный
Продолжительность: 01:40:35
Перевод: Дубляж [BD CEE]
Субтитры: Русские (полные + форс.), украинские (полные + форс.), английские ( Full + SDH + SDH-Colored)

Режиссер: Фил Лорд / Phil Lord , Кристофер Миллер / Christopher Miller



В ролях: Крис Прэтт, Уилл Феррелл, Элизабет Бэнкс, Уилл Арнетт, Лиам Нисон, Морган Фриман, Элисон Бри, Дэвид Берроуз, Энтони Дэниелс, Чарли Дэй

Описание: Обычная лего-фигурка соглашается присоединиться к походу против злого лего-диктатора, планирующего склеить вместе всю вселенную…

Качество: BDRip-AVC
Формат: MKV
Видео кодек: H.264
Аудио кодек: AC3
Видео: 1056x440 (2,40:1), 23,976 fps, 2207 Кbps, 0.198 bit/pixel
Аудио#1: 48 kHz, AC3 Dolby Digital, 3/2 (L,C,R,l,r) + LFE ch, 448.00 kbps | RUS
Аудио#2: 48 kHz, AC3 Dolby Digital, 3/2 (L,C,R,l,r) + LFE ch, 448.00 kbps | ENG

Релиз группы:
Автор рипа: potroks

Общее
Уникальный идентификатор : 234849087491678529872860308509323354540 (0xB0AE49FBFBF63C6DAFD2B56A4AB6E1AC)
Полное имя : Lego.Fil'm.2014.DUAL.BDRip.x264.-HELLYWOOD.mkv
Формат : Matroska
Версия формата : Version 4 / Version 2
Размер файла : 2,14 Гбайт
Продолжительность : 1 ч. 40 м.
Общий поток : 3039 Кбит/сек
Название фильма : HELLYWOOD - rip by potroks
Дата кодирования : UTC 2014-05-31 12:11:01
Программа кодирования : mkvmerge v5.9.0 ('On The Loose') built on Dec 15 2012 16:39:58
Библиотека кодирования : libebml v1.3.0 + libmatroska v1.4.0

Видео
Идентификатор : 1
Формат : AVC
Формат/Информация : Advanced Video Codec
Профиль формата : High@L4.1
Параметр CABAC формата : Да
Параметр ReFrames формата : 10 кадров
Идентификатор кодека : V_MPEG4/ISO/AVC
Продолжительность : 1 ч. 40 м.
Битрейт : 2207 Кбит/сек
Ширина : 1056 пикселей
Высота : 440 пикселей
Соотношение сторон : 2,40:1
Режим частоты кадров : Постоянный
Частота кадров : 23,976 кадра/сек
Цветовое пространство : YUV
Субдискретизация насыщенности : 4:2:0
Битовая глубина : 8 бит
Тип развёртки : Прогрессивная
Бит/(Пиксели*Кадры) : 0.198
Размер потока : 1,51 Гбайт (71%)
Заголовок : The Lego Movie
Библиотека кодирования : x264 core 130 r2273 b3065e6
Настройки программы : cabac=1 / ref=10 / deblock=1:-1:-1 / analyse=0x3:0x133 / me=umh / subme=11 / psy=1 / psy_rd=1.02:0.00 / mixed_ref=1 / me_range=48 / chroma_me=1 / trellis=2 / 8x8dct=1 / cqm=0 / deadzone=21,11 / fast_pskip=0 / chroma_qp_offset=-2 / threads=9 / lookahead_threads=6 / sliced_threads=0 / nr=0 / decimate=0 / interlaced=0 / bluray_compat=0 / constrained_intra=0 / bframes=11 / b_pyramid=2 / b_adapt=2 / b_bias=0 / direct=3 / weightb=1 / open_gop=0 / weightp=2 / keyint=250 / keyint_min=23 / scenecut=40 / intra_refresh=0 / rc_lookahead=60 / rc=2pass / mbtree=0 / bitrate=2207 / ratetol=1.0 / qcomp=0.70 / qpmin=0 / qpmax=69 / qpstep=4 / cplxblur=20.0 / qblur=0.5 / vbv_maxrate=20000 / vbv_bufsize=20000 / nal_hrd=none / ip_ratio=1.35 / pb_ratio=1.25 / aq=1:0.80
Язык : English
Default : Да
Forced : Нет

Аудио #1
Идентификатор : 2
Формат : AC-3
Формат/Информация : Audio Coding 3
Расширение режима : CM (complete main)
Параметр Endianness формата : Big
Идентификатор кодека : A_AC3
Продолжительность : 1 ч. 40 м.
Вид битрейта : Постоянный
Битрейт : 448 Кбит/сек
Каналы : 6 каналов
Расположение каналов : Front: L C R, Side: L R, LFE
Частота : 48,0 КГц
Битовая глубина : 16 бит
Метод сжатия : С потерями
Размер потока : 276 Мбайт (13%)
Заголовок : Dub | DD 5.1 @ 384 kbps - BD CEE
Язык : Russian
Default : Да
Forced : Да

Аудио #2
Идентификатор : 3
Формат : AC-3
Формат/Информация : Audio Coding 3
Расширение режима : CM (complete main)
Параметр Endianness формата : Big
Идентификатор кодека : A_AC3
Продолжительность : 1 ч. 40 м.
Вид битрейта : Постоянный
Битрейт : 448 Кбит/сек
Каналы : 6 каналов
Расположение каналов : Front: L C R, Side: L R, LFE
Частота : 48,0 КГц
Битовая глубина : 16 бит
Метод сжатия : С потерями
Размер потока : 322 Мбайт (15%)
Заголовок : Original | DD 5.1 @ 448 kbps
Язык : English
Default : Нет
Forced : Нет

Текст #1
Идентификатор : 4
Формат : UTF-8
Идентификатор кодека : S_TEXT/UTF8
Идентификатор кодека/Информация : UTF-8 Plain Text
Заголовок : Forced
Язык : Russian
Default : Да
Forced : Да

Текст #2
Идентификатор : 5
Формат : UTF-8
Идентификатор кодека : S_TEXT/UTF8
Идентификатор кодека/Информация : UTF-8 Plain Text
Заголовок : Full
Язык : Russian
Default : Нет
Forced : Нет

Текст #3
Идентификатор : 6
Формат : UTF-8
Идентификатор кодека : S_TEXT/UTF8
Идентификатор кодека/Информация : UTF-8 Plain Text
Заголовок : Forced
Язык : Ukrainian
Default : Нет
Forced : Нет

Текст #4
Идентификатор : 7
Формат : UTF-8
Идентификатор кодека : S_TEXT/UTF8
Идентификатор кодека/Информация : UTF-8 Plain Text
Заголовок : Full
Язык : Ukrainian
Default : Нет
Forced : Нет

Текст #5
Идентификатор : 8
Формат : UTF-8
Идентификатор кодека : S_TEXT/UTF8
Идентификатор кодека/Информация : UTF-8 Plain Text
Заголовок : Full
Язык : English
Default : Нет
Forced : Нет

Текст #6
Идентификатор : 9
Формат : UTF-8
Идентификатор кодека : S_TEXT/UTF8
Идентификатор кодека/Информация : UTF-8 Plain Text
Заголовок : SDH
Язык : English
Default : Нет
Forced : Нет

Текст #7
Идентификатор : 10
Формат : UTF-8
Идентификатор кодека : S_TEXT/UTF8
Идентификатор кодека/Информация : UTF-8 Plain Text
Заголовок : SDH-Colored
Язык : English
Default : Нет
Forced : Нет

Меню
00:00:00.000 : en:(01)00:00:00:000
00:09:44.040 : en:(02)00:09:44:040
00:18:18.387 : en:(03)00:18:18:387
00:29:50.747 : en:(04)00:29:50:747
00:38:48.034 : en:(05)00:38:48:034
00:48:45.047 : en:(06)00:48:45:047
00:57:49.423 : en:(07)00:57:49:423
01:06:05.251 : en:(08)01:06:05:251
01:16:24.203 : en:(09)01:16:24:203
01:25:56.149 : en:(10)01:25:56:149
01:32:57.320 : en:(11)01:32:57:320
01:40:35.069 : en:(12)01:40:35:069

pb.wtf



Скачать Лего. Фильм через торрент http://pic.kartinco.top/new/img/2014-05/31/glu23gqe35ktroh1f57qkgkl4.png Скачать фильм Лего. Фильм через торрент бесплантно в хорошем качестве Описание: Обычная лего-фигурка соглашается присоединиться к походу против злого лего-диктатора, планирующего склеить вместе всю ... 9.8 10 42
Info! Золотая раздача, скачанное не засчитывается.
Торрент: Зарегистрирован [2014-06-13 11:51] · скачан: 2 283 раз
Статус: √ проверено
Размер: 2.18 GB
Как cкачать? Как скачать Лего. Фильм через торрент | qTorrent

% Раздел Тема Автор DL S | L
Зарубежные Мультфильмы (BDRip 1080p, 720p, Blu-ray, BD-Remux) [ 5.63 GB ] ЛЕГО Фильм-2 / The Lego Movie 2: The Second Part [2019 мультфильм мюзикл BDRip 720p] DUB [] bober100 Скачать
1 | 0
Ultra HD (UHD: 2K, 4K, 8K) [ 44.55 GB ] ЛЕГО Фильм 2 / The Lego Movie 2: The Second Part [2019 мультфильм мюзикл UHD BDRemux 2160p] DUB [] sheker187 Скачать
1 | 0
Ultra HD (UHD: 2K, 4K, 8K) [ 13.49 GB ] ЛЕГО Фильм 2 / The Lego Movie 2: The Second Part [2019 мультфильм мюзикл UHD BDRip 2160p] [SDR] DUB [] sheker187 Скачать
1 | 0
Зарубежные Мультфильмы (BDRip 1080p, 720p, Blu-ray, BD-Remux) [ 10.27 GB ] ЛЕГО Фильм-2 / The Lego Movie 2: The Second Part [2019 мультфильм мюзикл BDRip 1080p] DUB [] bober100 Скачать
1 | 0
3D Мультфильмы [ 6.95 GB ] ЛЕГО Фильм-2 3Д / The Lego Movie 2: The Second Part 3D [2019 мультфильм мюзикл BDRip 1080p] [Half OverUnder] DUB [] bober100 Скачать
1 | 0
Зарубежные Мультфильмы (BDRip 1080p, 720p, Blu-ray, BD-Remux) [ 44.97 GB ] ЛЕГО Фильм-2 / The Lego Movie 2: The Second Part [2019 мультфильм мюзикл Blu-ray EUR 1080p] DUB [] bober100 Скачать
1 | 0
Иностранные мультфильмы [ 1.67 GB ] ЛЕГО Фильм-2 / The Lego Movie 2: The Second Part [2019 мультфильм мюзикл BDRip-AVC] DUB [] bober100 Скачать
1 | 0

28-11-2019 20:33  

Отключить всю рекламу на сайте

13-06-2014 11:52 Лего. Фильм Скачать торрент  

заменил на лицензиюpb.wtf



16-06-2014 11:37 Лего. Фильм Скачать торрент  

концовка гениальна, понравился оченьpb.wtf



22-11-2016 14:36 Лего. Фильм Скачать торрент  

Почему в названии ни слова что это 3D?
Я скачал и узнал только когда включилpb.wtf



    Дорогой пользователь! Огромная просьба, поблагодарите релизера, оцените раздачу и оставьте свои комментарий, если Вы скачали Лего. Фильм через торрент бесплатно! Внесите свою лепту в развитие PiratBit!
    Комментировать посты могут только пользователи прошедшие не сложную регистрацию
    Показать сообщения:    

    Лего. Фильм через торрент
    Скачать бесплатно Лего. Фильм
    Лего. Фильм скачать торрент
    Лего. Фильм смотреть онлайн
    Cкачать фильм Лего. Фильм бесплатно
    Лего. Фильм скачать торрент в хорошем качестве
    Лего. Фильм смотреть онлайн бесплатно в хорошем качестве


    Вы не можете начинать темы
    Вы не можете отвечать на сообщения
    Вы не можете редактировать свои сообщения
    Вы не можете удалять свои сообщения
    Вы не можете голосовать в опросах
    Вы не можете прикреплять файлы к сообщениям
    Вы можете скачивать файлы