Ссылка на приватное зеркало нашего сайта всего за 1$. Внимание количество ограничено!!!

2 сезон

iTunes

1 сезон

1

2 сезон

2 сезон

iTunes

1 сезон

RePack

30

Новинка

ВАЖНО

ИГРА 18+

pack

RePack

MK11
pack

Забери бонус

RePack

jed

!!Акция!!

Alien_Rage

RePack

fifa19

RePack

Assassins Creed: Odyssey

RePack

NEED FOR SPEED™ PAYBACK

4 сезон

9 сезон

Бесстыжие 9 сезон

Все сериалы

все сериалы на PB.wtf

RePack

FAR CRY 5
  

Лабиринт Фавна / El laberinto del fauno (Гильермо дель Торо / Guillermo del Toro) [2006, фэнтези, драма, военный, BD-Remux, Дублированный, Лицензия] pb.wtf

Лабиринт Фавна через торрент pb.wtf

Размер: 25.91 GB | Добавлен: 6 лет 5 мес. назад | Торрент скачан:35 раз
Скачать  

31-05-2014 15:53 Лабиринт Фавна Скачать торрент  

Лабиринт Фавна / El laberinto del fauno
«What happens when make-believe believes it's real?»



Год выпуска: 2006
Страна: Испания, Мексика, США
Жанр: фэнтези, драма, военный
Продолжительность: 01:58:52
Перевод: Дублированный [Лицензия]
Субтитры: Русские, Английские



Режиссер:
  • Гильермо дель Торо / Guillermo del Toro
В ролях:
  • Ивана Бакеро/Ivana Baquero, Серхи Лопес/Sergi López, Марибель Верду/Maribel Verdú, Даг Джонс/Doug Jones, Ариадна Хиль/Ariadna Gil, Алекс Ангуло/Álex Angulo, Маноло Соло/Manolo Solo, Сесар Веа/César Vea, Рохер Касамахор/Roger Casamajor, Иван Массаге/Ivan Massagué, Гонсало Уриарте/Gonzalo Uriarte, Эусебио Ласаро/Eusebio Lázaro
Описание: Испания, 1944 год. Группа повстанцев сражается с фашистами в горных лесах северной Наварры. Офелия - 10-летняя одинокая и мечтательная девочка - переезжает со своей беременной матерью Кармен в военный лагерь отчима, капитана Видаля. Видаль - высокомерный и жестокий офицер армии Франко, который должен очистить район от повстанцев любой ценой. Офелия, увлеченная волшебными сказками, обнаруживает старинный заброшенный лабиринт неподалеку от дома.
Фея проводит ее в центр лабиринта, где она встречает Фавна, хозяина подземелья. Фавн утверждает, что знает её истинную судьбу и её тайное предназначение. Оказывается Офелия - пропавшая принцесса волшебного королевства, которую многие века разыскивает ее отец. Фавн предлагает ей возможность вернуться в волшебное королевство. Но для начала она должна пройти три испытания до наступления полнолуния. Никто не должен узнать об этом.



Качество: BD-Remux
Формат: MKV
Видео кодек: VC-1
Аудио кодек: AC3
Видео: VC-1, 1920x1080 (16:9), 23,976 fps, 28851 kbps, 0,580 bpp
Аудио №1: AC3, 48 kHz, 5.1 ch, 448 kbps, Дубляж
Аудио №2: AC3, 48 kHz, 5.1 ch, 640 kbps, П.Гланц и И.Королева
Аудио №3: AC3, 48 kHz, 5.1 ch, 640 kbps, Оригинал


Код:

General
Unique ID                                : 181608328792371645045132017806674161814 (0x88A07DEA5965A14D86B8319D4F8AF096)
Complete name                            : I:\Лабиринт Фавна (2006) BD-Remux.mkv
Format                                   : Matroska
Format version                           : Version 4 / Version 2
File size                                : 25.9 GiB
Duration                                 : 1h 58mn
Overall bit rate                         : 31.2 Mbps
Movie name                               : Лабиринт Фавна / El laberinto del fauno (2006)
Encoded date                             : UTC 2014-05-31 15:08:04
Writing application                      : mkvmerge v6.6.0 ('The Edge Of The In Between') built on Dec  1 2013 17:55:00
Writing library                          : libebml v1.3.0 + libmatroska v1.4.1
Attachment                               : Yes

Video
ID                                       : 1
Format                                   : VC-1
Format profile                           : AP@L3
Codec ID                                 : WVC1
Codec ID/Hint                            : Microsoft
Duration                                 : 1h 58mn
Bit rate                                 : 28.9 Mbps
Width                                    : 1 920 pixels
Height                                   : 1 080 pixels
Display aspect ratio                     : 16:9
Frame rate                               : 23.976 fps
Chroma subsampling                       : 4:2:0
Bit depth                                : 8 bits
Scan type                                : Progressive
Compression mode                         : Lossy
Bits/(Pixel*Frame)                       : 0.580
Stream size                              : 24.0 GiB (92%)
Default                                  : Yes
Forced                                   : No

Audio #1
ID                                       : 2
Format                                   : AC-3
Format/Info                              : Audio Coding 3
Mode extension                           : CM (complete main)
Codec ID                                 : A_AC3
Duration                                 : 1h 58mn
Bit rate mode                            : Constant
Bit rate                                 : 448 Kbps
Channel(s)                               : 6 channels
Channel positions                        : Front: L C R, Side: L R, LFE
Sampling rate                            : 48.0 KHz
Bit depth                                : 16 bits
Compression mode                         : Lossy
Stream size                              : 381 MiB (1%)
Title                                    : Дублированный, R5
Language                                 : Russian
Default                                  : Yes
Forced                                   : No

Audio #2
ID                                       : 3
Format                                   : AC-3
Format/Info                              : Audio Coding 3
Mode extension                           : CM (complete main)
Codec ID                                 : A_AC3
Duration                                 : 1h 58mn
Bit rate mode                            : Constant
Bit rate                                 : 640 Kbps
Channel(s)                               : 6 channels
Channel positions                        : Front: L C R, Side: L R, LFE
Sampling rate                            : 48.0 KHz
Bit depth                                : 16 bits
Compression mode                         : Lossy
Delay relative to video                  : -42ms
Stream size                              : 544 MiB (2%)
Title                                    : П.Гланц и И.Королева
Language                                 : Russian
Default                                  : No
Forced                                   : No

Audio #3
ID                                       : 4
Format                                   : AC-3
Format/Info                              : Audio Coding 3
Mode extension                           : CM (complete main)
Codec ID                                 : A_AC3
Duration                                 : 1h 58mn
Bit rate mode                            : Constant
Bit rate                                 : 640 Kbps
Channel(s)                               : 6 channels
Channel positions                        : Front: L C R, Side: L R, LFE
Sampling rate                            : 48.0 KHz
Bit depth                                : 16 bits
Compression mode                         : Lossy
Delay relative to video                  : -42ms
Stream size                              : 544 MiB (2%)
Title                                    : Оригинал
Language                                 : Spanish
Default                                  : No
Forced                                   : No

Text #1
ID                                       : 5
Format                                   : UTF-8
Codec ID                                 : S_TEXT/UTF8
Codec ID/Info                            : UTF-8 Plain Text
Language                                 : Russian
Default                                  : No
Forced                                   : No

Text #2
ID                                       : 6
Format                                   : UTF-8
Codec ID                                 : S_TEXT/UTF8
Codec ID/Info                            : UTF-8 Plain Text
Language                                 : English
Default                                  : No
Forced                                   : No

Menu
00:00:00.000                             : en:00:00:00.000
00:11:13.965                             : en:00:11:13.965
00:17:53.948                             : en:00:17:53.948
00:24:36.016                             : en:00:24:36.016
00:31:41.733                             : en:00:31:41.733
00:38:17.754                             : en:00:38:17.754
00:43:35.530                             : en:00:43:35.530
00:50:21.393                             : en:00:50:21.393
00:55:21.735                             : en:00:55:21.735
01:02:20.153                             : en:01:02:20.153
01:11:47.803                             : en:01:11:47.803
01:23:30.088                             : en:01:23:30.088
01:31:12.258                             : en:01:31:12.258
01:41:33.796                             : en:01:41:33.796
01:52:04.009                             : en:01:52:04.009

Бюджет фильма: $19 000 000
Премьера (мир): 27 мая 2006
Премьера (РФ): 30 ноября 2006,
«RUSCICO»

Релиз на Blu-Ray: 8 марта 2012,
«Новый Диск»,
...

Релиз на DVD: 22 сентября 2009,
«Флагман-Трейд»,
...






pb.wtf



Скачать Лабиринт Фавна через торрент http://i64.fastpic.ru/big/2014/0531/8e/16ea1c71f09cfa0a31876eb5cf13bd8e.png Скачать фильм Лабиринт Фавна через торрент бесплантно в хорошем качестве Описание: Испания, 1944 год. Группа повстанцев сражается с фашистами в горных лесах северной Наварры. Офелия - 10-летняя одинокая и ... 9.2 10 11
Info! Золотая раздача, скачанное не засчитывается.
Торрент: Зарегистрирован [2014-05-31 15:53] · скачан: 35 раз
Статус: √ проверено
Размер: 25.91 GB
Как cкачать? Как скачать Лабиринт Фавна через торрент | qTorrent

% Раздел Тема Автор DL S | L
Фильмы (Blu-ray, BD-Remux, HDDVD) [ 33.9 GB ] Лабиринт Фавна / El laberinto del fauno / Pan's Labyrinth [2006 военный BDRemux 1080p] DUB + MVO + DVO + AVO sheker187 Скачать
1 | 0
Фильмы [HD 720p, 1080p] (Хороший звук DUB, MVO) [ 19.02 GB ] Лабиринт Фавна / El laberinto del fauno [2006 военный BDRip 1080p] DUB+DVO bober100 Скачать
1 | 0
Фильмы [HD 720p, 1080p] (Хороший звук DUB, MVO) [ 4.95 GB ] Лабиринт Фавна / El laberinto del fauno [2006 военный BDRip 720p DUB] VintMosina Скачать
2 | 0
Фильмы 2006-2008 [ 2.18 GB ] Лабиринт Фавна / El Laberinto del fauno [2006 военный BDRip лицензия] Virtus Скачать
3 | 0

28-11-2019 20:33  

Отключить всю рекламу на сайте

    Дорогой пользователь! Огромная просьба, поблагодарите релизера, оцените раздачу и оставьте свои комментарий, если Вы скачали Лабиринт Фавна через торрент бесплатно! Внесите свою лепту в развитие PiratBit!
    Комментировать посты могут только пользователи прошедшие не сложную регистрацию
    Показать сообщения:    

    Лабиринт Фавна через торрент
    Скачать бесплатно Лабиринт Фавна
    Лабиринт Фавна скачать торрент
    Лабиринт Фавна смотреть онлайн
    Cкачать фильм Лабиринт Фавна бесплатно
    Лабиринт Фавна скачать торрент в хорошем качестве
    Лабиринт Фавна смотреть онлайн бесплатно в хорошем качестве


    Вы не можете начинать темы
    Вы не можете отвечать на сообщения
    Вы не можете редактировать свои сообщения
    Вы не можете удалять свои сообщения
    Вы не можете голосовать в опросах
    Вы не можете прикреплять файлы к сообщениям
    Вы можете скачивать файлы