Ссылка на приватное зеркало нашего сайта всего за 1$. Внимание количество ограничено!!!

2 сезон

iTunes

1 сезон

1

iTunes

iTunes

iTunes

1 сезон

RePack

30

ИГРА 18+

pack

ВАЖНО

!!Акция!!

Alien_RageХит недели

RePack

MK11
pack

Забери бонус

RePack

jed

!!Акция!!

Alien_Rage

RePack

fifa19

RePack

Assassins Creed: Odyssey

RePack

NEED FOR SPEED™ PAYBACK

4 сезон

9 сезон

Бесстыжие 9 сезон

Все сериалы

все сериалы на PB.wtf

RePack

FAR CRY 5
  

Как братья / Comme des frères (Хьюго (Юго) Желен) [2012 г., Комедия, HDRip] VO (Pashaup) pb.wtf

Как братья через торрент pb.wtf

Размер: 1.45 GB | Добавлен: 6 лет 4 мес. назад | Торрент скачан:184 раза
Скачать  

31-05-2014 17:58 Как братья Скачать торрент  

Как братья / Comme des frères
Год выпуска: 2012
Страна: Франция Ciné, Cofinova 8, Direct 8, Direct Cinéma, La Banque Postale Images 5, Stone Angels
Жанр: Комедия
Продолжительность: 01:43:41
Перевод: Любительский одноголосый [ Pashaup]
Режиссер: Хьюго (Юго) Желен
Продюссер: Летиция Голицына, Хьюго Желен, Пьер-Анж Ле Пожам
Сценарий: Хьюго Желен, Ромейн Прота, Эрве Мимран
Премьера в мире: 26 августа 2012

В ролях: Пьер Нине, Николя Дювошель, Франсуа-Ксавье Демезон, Мелани Тьерри, Сесиль Кассель, Мишлин Прель, Филипп Лоденбаш, Жак Франц, Ланник Готри, Натали Руссел
Описание: На похоронах Шарли Максим, Эли и Борис получают открытку с фотографией дома на Корсике, на которой рукой Шарли написано пожелание, чтобы они поехали туда в любом случае. В любом - в смысле без нее. На первый взгляд, у этих троих молодых (и не очень) людей нет ничего общего, но для каждого из них Шарли значила так много, что они отправляются выполнять ее последнее желание, оставив работу, подружек и разные срочные дела. Кто она была для каждого из них? Что свело их вместе? Почему они решились на поездку? Что их ждет? Все это предстоит узнать за созерцанием прекрасной Франции по пути от Парижа до Корсики, поскольку фильм снят в жанре дорожного кино.

Качество: HDRip
Формат: AVI
Видео кодек: MPEG4
Аудио кодек: AC3
Видео: FMP4 ,720x400, 24fps, 1 278 Kbps
Аудио#1: Dolby AC3, 44100Hz, stereo, 192kbps Русский
Аудио#2: Dolby AC3, 48000Hz, 6ch, 448kbps Францзуский
Релиз от: Pashaup





General
Format : AVI
Format/Info : Audio Video Interleave
File size : 1.45 GiB
Duration : 1h 43mn
Overall bit rate : 2 008 Kbps
Writing application : Lavf51.12.1

Video
ID : 0
Format : MPEG-4 Visual
Codec ID : FMP4
Duration : 1h 43mn
Bit rate : 1 278 Kbps
Width : 720 pixels
Height : 400 pixels
Display aspect ratio : 16:9
Frame rate : 24.000 fps
Color space : YUV
Chroma subsampling : 4:2:0
Compression mode : Lossy
Bits/(Pixel*Frame) : 0.185
Stream size : 947 MiB (64%)

Audio #1
ID : 1
Format : AC-3
Format/Info : Audio Coding 3
Codec ID : 2000
Duration : 1h 43mn
Bit rate mode : Constant
Bit rate : 192 Kbps
Channel(s) : 2 channels
Sampling rate : 44.1 KHz
Bit depth : 16 bits
Compression mode : Lossy
Stream size : 142 MiB (10%)
Alignment : Aligned on interleaves

Audio #2
ID : 2
Format : AC-3
Format/Info : Audio Coding 3
Codec ID : 2000
Duration : 1h 43mn
Bit rate mode : Constant
Bit rate : 448 Kbps
Channel(s) : 6 channels
Sampling rate : 48.0 KHz
Bit depth : 16 bits
Compression mode : Lossy
Stream size : 332 MiB (22%)
Alignment : Aligned on interleaves

pb.wtf



Скачать Как братья через торрент http://pic.kartinco.top/images/6/5s6v9.jpg Скачать фильм Как братья через торрент бесплантно в хорошем качестве Описание: На похоронах Шарли Максим, Эли и Борис получают открытку с фотографией дома на Корсике, на которой рукой Шарли написано ... 8.8 10 4
Торрент: Зарегистрирован [2014-05-31 17:58] · скачан: 184 раз
Статус: √ проверено
Размер: 1.45 GB
Как cкачать? Как скачать Как братья через торрент | qTorrent

% Раздел Тема Автор DL S | L
Фильмы 2012 [ 2.17 GB ] Как братья / Comme des frères [2012 HDRip Любительский одноголосый] coc900 Скачать
1 | 0


Последний раз редактировалось: lug30 (2014-05-31 18:03), всего редактировалось 1 раз

28-11-2019 20:33  

Отключить всю рекламу на сайте

31-05-2014 18:01 Как братья Скачать торрент  

трейлер классныйpb.wtf



31-05-2014 18:12 Как братья Скачать торрент  

Kesady писал(а):

трейлер классный

уже переделал опять меня обманули,ну еще разок,,,,все трейлера у них закрыты -пока смотрим семилpb.wtf



31-05-2014 18:18 Как братья Скачать торрент  

на кинопоиске есть трейлерpb.wtf



09-12-2014 13:23 Как братья Скачать торрент  

как фильм??????????pb.wtf



    Дорогой пользователь! Огромная просьба, поблагодарите релизера, оцените раздачу и оставьте свои комментарий, если Вы скачали Как братья через торрент бесплатно! Внесите свою лепту в развитие PiratBit!
    Комментировать посты могут только пользователи прошедшие не сложную регистрацию
    Показать сообщения:    

    Как братья через торрент
    Скачать бесплатно Как братья
    Как братья скачать торрент
    Как братья смотреть онлайн
    Cкачать фильм Как братья бесплатно
    Как братья скачать торрент в хорошем качестве
    Как братья смотреть онлайн бесплатно в хорошем качестве


    Вы не можете начинать темы
    Вы не можете отвечать на сообщения
    Вы не можете редактировать свои сообщения
    Вы не можете удалять свои сообщения
    Вы не можете голосовать в опросах
    Вы не можете прикреплять файлы к сообщениям
    Вы можете скачивать файлы