Ссылка на приватное зеркало нашего сайта всего за 1$. Внимание количество ограничено!!!

2 сезон

iTunes

1 сезон

1

iTunes

iTunes

iTunes

1 сезон

RePack

30

ИГРА 18+

pack

ВАЖНО

!!Акция!!

Alien_RageХит недели

RePack

MK11
pack

Забери бонус

RePack

jed

!!Акция!!

Alien_Rage

RePack

fifa19

RePack

Assassins Creed: Odyssey

RePack

NEED FOR SPEED™ PAYBACK

4 сезон

9 сезон

Бесстыжие 9 сезон

Все сериалы

все сериалы на PB.wtf

RePack

FAR CRY 5
  

Лето Дакоты / Dakota's Summer (Тим Армстронг) [2014 г., драма, семейный, HDRip, Любительский одноголосый] pb.wtf

Лето Дакоты через торрент pb.wtf

Размер: 2.16 GB | Добавлен: 6 лет 4 мес. назад | Торрент скачан:45 раз
Скачать  

01-06-2014 12:57 Лето Дакоты Скачать торрент  

Лето Дакоты / Dakota's Summer
Год выпуска: 2014
Страна: США / Sense and Sensibility Ventures
Жанр: драма, семейный
Продолжительность: 01:30:31
Перевод: Любительский одноголосый (datynet)

Режиссер: Тим Армстронг

В ролях: Хейли Рэмм, Брайан Дечарт, Глинн Тёрмен, Эмили Бетт Рикардс, Уолт Робертс, Кимберли Уэйлен, Эмбер Даун Лэндрум, Лесли-Энн Хафф, Деррик Стриклэнд

Описание: Дакота Роуз – представительница славного рода ковбоев. Правда, пока у нее хорошо получается только падать с лошади. А ее ровесницы уже показывают сложнейшие акробатические фигуры! И тут выясняется, что родители все эти годы скрывали от Дакоты ужасную правду: они взяли ее из детдома! Теперь у Дакоты две большие задачи: собрать по кусочкам свою жизнь и найти настоящих родителей

Качество: HDRip
Формат: AVI
Видео кодек: XviD
Аудио кодек: AC3
Видео: 720x384 (1.88:1), 23.976 fps, XviD build 50 ~3211 kbps avg, 0.48 bit/pixel
Аудио: 44.1 kHz, AC3 Dolby Digital, 2/0 (L,R) ch, ~192 kbps


Общее
Полное имя : H:\кино\Dakotas.Summer.2014.HDRip.avi
Формат : AVI
Формат/Информация : Audio Video Interleave
Профиль формата : OpenDML
Размер файла : 2,16 Гбайт
Продолжительность : 1 ч. 30 м.
Общий поток : 3411 Кбит/сек
Программа кодирования : VirtualDubMod 1.5.10.3 | www.virtualdub-fr.org || (build 2550/release)
Библиотека кодирования : VirtualDubMod build 2550/release

Видео
Идентификатор : 0
Формат : MPEG-4 Visual
Профиль формата : Advanced Simple@L5
Параметр BVOP формата : 2
Параметр QPel формата : Нет
Параметр GMC формата : Без точки перехода
Параметр матрицы формата : Default (H.263)
Идентификатор кодека : XVID
Идентификатор кодека/Подсказка : XviD
Продолжительность : 1 ч. 30 м.
Битрейт : 3207 Кбит/сек
Ширина : 720 пикселей
Высота : 384 пикселя
Соотношение сторон : 1,85:1
Частота кадров : 23,976 кадра/сек
Цветовое пространство : YUV
Субдискретизация насыщенности : 4:2:0
Битовая глубина : 8 бит
Тип развёртки : Прогрессивная
Метод сжатия : С потерями
Бит/(Пиксели*Кадры) : 0.484
Размер потока : 2,03 Гбайт (94%)
Библиотека кодирования : XviD 1.2.1 (UTC 2008-12-04)

Аудио
Идентификатор : 1
Формат : AC-3
Формат/Информация : Audio Coding 3
Расширение режима : CM (complete main)
Параметр Endianness формата : Big
Идентификатор кодека : 2000
Продолжительность : 1 ч. 30 м.
Вид битрейта : Постоянный
Битрейт : 192 Кбит/сек
Каналы : 2 канала
Расположение каналов : Front: L R
Частота : 44,1 КГц
Битовая глубина : 16 бит
Метод сжатия : С потерями
Размер потока : 124 Мбайт (6%)
Выравнивание : Разделение по промежуткам
Продолжительность промежутка : 42 мс. (1,00 видеокадр)
Время предзагрузки промежутка : 500 мс.

pb.wtf



Скачать Лето Дакоты через торрент http://i64.fastpic.ru/big/2014/0601/2f/81710d5d9f8b09b876659dcb5186242f.jpg Скачать фильм Лето Дакоты через торрент бесплантно в хорошем качестве Описание: Дакота Роуз – представительница славного рода ковбоев. Правда, пока у нее хорошо получается только падать с лошади. А ее ... 10 10 4
Торрент: Зарегистрирован [2014-06-01 12:57] · скачан: 45 раз
Статус: √ проверено
Размер: 2.16 GB
Как cкачать? Как скачать Лето Дакоты через торрент | qTorrent

28-11-2019 20:33  

Отключить всю рекламу на сайте

    Дорогой пользователь! Огромная просьба, поблагодарите релизера, оцените раздачу и оставьте свои комментарий, если Вы скачали Лето Дакоты через торрент бесплатно! Внесите свою лепту в развитие PiratBit!
    Комментировать посты могут только пользователи прошедшие не сложную регистрацию
    Показать сообщения:    

    Лето Дакоты через торрент
    Скачать бесплатно Лето Дакоты
    Лето Дакоты скачать торрент
    Лето Дакоты смотреть онлайн
    Cкачать фильм Лето Дакоты бесплатно
    Лето Дакоты скачать торрент в хорошем качестве
    Лето Дакоты смотреть онлайн бесплатно в хорошем качестве


    Вы не можете начинать темы
    Вы не можете отвечать на сообщения
    Вы не можете редактировать свои сообщения
    Вы не можете удалять свои сообщения
    Вы не можете голосовать в опросах
    Вы не можете прикреплять файлы к сообщениям
    Вы можете скачивать файлы