Ссылка на приватное зеркало нашего сайта всего за 1$. Внимание количество ограничено!!!

2 сезон

iTunes

1 сезон

1

2 сезон

2 сезон

iTunes

1 сезон

RePack

30

Новинка

ВАЖНО

ИГРА 18+

pack

RePack

MK11
pack

Забери бонус

RePack

jed

!!Акция!!

Alien_Rage

RePack

fifa19

RePack

Assassins Creed: Odyssey

RePack

NEED FOR SPEED™ PAYBACK

4 сезон

9 сезон

Бесстыжие 9 сезон

Все сериалы

все сериалы на PB.wtf

RePack

FAR CRY 5
  

Большая свадьба / The Big Wedding (Джастин Закэм / Justin Zackham) [2013, комедия, BD-Remux, USA Transfer, Дублированный, Лицензия] pb.wtf

Большая свадьба через торрент pb.wtf

Размер: 16.41 GB | Добавлен: 6 лет 5 мес. назад | Торрент скачан:24 раза
Скачать  

01-06-2014 16:12 Большая свадьба Скачать торрент  

Большая свадьба / The Big Wedding
«Вы приглашены свидетелями!»



Год выпуска: 2013
Страна: США
Жанр: комедия
Продолжительность: 01:29:32
Перевод: Дублированный [Лицензия]
Субтитры: Английские



Режиссер:
  • Джастин Закэм / Justin Zackham
В ролях:
  • Роберт Де Ниро/Robert De Niro, Дайан Китон/Diane Keaton, Кэтрин Хайгл/Katherine Heigl, Сьюзен Сарандон/Susan Sarandon, Бен Барнс/Ben Barnes, Аманда Сайфред/Amanda Seyfried, Тофер Грейс/Topher Grace, Ана Айора/Ana Ayora, Робин Уильямс/Robin Williams, Патриция Рэй/Patricia Rae, Кристин Эберсоул/Christine Ebersole, Дэвид Раш/David Rasche
Описание: История о современной семье, пытающейся пережить выходные свадебного торжества, которые могут обернуться полным крахом для них. К удивлению своих детей и друзей давно разведенные Дон и Элли Гриффин вынуждены притворяться счастливыми ради свадьбы своего приемного сына, после того как его ультраконсервативная биологическая мать неожиданно решает пролететь через пол мира, чтобы принять участие в этом торжестве...



Качество: BD-Remux [USA Transfer]
Формат: MKV
Видео кодек: AVC
Аудио кодек: AC3
Видео: AVC, 1920x1080 (16:9), 23,976 fps, 24427 kbps, 0,491 bpp
Аудио №1: AC3, 48 kHz, 5.1 ch, 640 kbps, русский
Аудио №2: AC3, 48 kHz, 5.1 ch, 640 kbps, английский


Код:

General
Unique ID                                : 213410447526103081406132527473900850499 (0xA08D5B6D1AE1B768B16714AA2D0F0D43)
Complete name                            : I:\Большая свадьба (2013) [USA Transfer] BD-Remux.mkv
Format                                   : Matroska
Format version                           : Version 4 / Version 2
File size                                : 16.4 GiB
Duration                                 : 1h 29mn
Overall bit rate mode                    : Variable
Overall bit rate                         : 26.2 Mbps
Movie name                               : Большая свадьба / The Big Wedding (2013)
Encoded date                             : UTC 2014-06-01 10:28:11
Writing application                      : mkvmerge v6.6.0 ('The Edge Of The In Between') built on Dec  1 2013 17:55:00
Writing library                          : libebml v1.3.0 + libmatroska v1.4.1
Attachment                               : Yes

Video
ID                                       : 1
Format                                   : AVC
Format/Info                              : Advanced Video Codec
Format profile                           : High@L4.1
Format settings, CABAC                   : Yes
Format settings, ReFrames                : 4 frames
Codec ID                                 : V_MPEG4/ISO/AVC
Duration                                 : 1h 29mn
Bit rate mode                            : Variable
Bit rate                                 : 24.4 Mbps
Maximum bit rate                         : 35.0 Mbps
Width                                    : 1 920 pixels
Height                                   : 1 080 pixels
Display aspect ratio                     : 16:9
Frame rate                               : 23.976 fps
Standard                                 : NTSC
Color space                              : YUV
Chroma subsampling                       : 4:2:0
Bit depth                                : 8 bits
Scan type                                : Progressive
Bits/(Pixel*Frame)                       : 0.491
Stream size                              : 15.3 GiB (93%)
Default                                  : Yes
Forced                                   : No
Color primaries                          : BT.709-5, BT.1361, IEC 61966-2-4, SMPTE RP177
Transfer characteristics                 : BT.709-5, BT.1361
Matrix coefficients                      : BT.709-5, BT.1361, IEC 61966-2-4 709, SMPTE RP177

Audio #1
ID                                       : 2
Format                                   : AC-3
Format/Info                              : Audio Coding 3
Mode extension                           : CM (complete main)
Codec ID                                 : A_AC3
Duration                                 : 1h 29mn
Bit rate mode                            : Constant
Bit rate                                 : 640 Kbps
Channel(s)                               : 6 channels
Channel positions                        : Front: L C R, Side: L R, LFE
Sampling rate                            : 48.0 KHz
Bit depth                                : 16 bits
Compression mode                         : Lossy
Stream size                              : 410 MiB (2%)
Title                                    : Дублированный, Blu-ray
Language                                 : Russian
Default                                  : Yes
Forced                                   : No

Audio #2
ID                                       : 3
Format                                   : AC-3
Format/Info                              : Audio Coding 3
Mode extension                           : CM (complete main)
Codec ID                                 : A_AC3
Duration                                 : 1h 29mn
Bit rate mode                            : Constant
Bit rate                                 : 640 Kbps
Channel(s)                               : 6 channels
Channel positions                        : Front: L C R, Side: L R, LFE
Sampling rate                            : 48.0 KHz
Bit depth                                : 16 bits
Compression mode                         : Lossy
Stream size                              : 410 MiB (2%)
Title                                    : Оригинал
Language                                 : English
Default                                  : No
Forced                                   : No

Text
ID                                       : 4
Format                                   : UTF-8
Codec ID                                 : S_TEXT/UTF8
Codec ID/Info                            : UTF-8 Plain Text
Title                                    : Полные
Language                                 : English
Default                                  : No
Forced                                   : No

Menu
00:00:00.000                             : en:00:00:00.000
00:07:27.739                             : en:00:07:27.739
00:12:42.887                             : en:00:12:42.887
00:20:57.214                             : en:00:20:57.214
00:28:32.669                             : en:00:28:32.669
00:36:18.468                             : en:00:36:18.468
00:43:38.366                             : en:00:43:38.366
00:51:07.982                             : en:00:51:07.982
00:59:10.464                             : en:00:59:10.464
01:08:03.246                             : en:01:08:03.246
01:16:01.056                             : en:01:16:01.056
01:22:41.999                             : en:01:22:41.999

Бюджет фильма: $35 000 000
Премьера (мир): 25 апреля 2013
Премьера (РФ): 12 июня 2013,
«Парадиз»

Релиз на Blu-Ray: 13 августа 2013,
«Парадиз / Активижен»,
...

Релиз на DVD: 13 августа 2013,
«Парадиз / Активижен»,
...






pb.wtf



Скачать Большая свадьба через торрент http://i64.fastpic.ru/big/2014/0601/30/98241c22ed1a41e4785e6bb79dc8d330.png Скачать фильм Большая свадьба через торрент бесплантно в хорошем качестве Описание: История о современной семье, пытающейся пережить выходные свадебного торжества, которые могут обернуться полным крахом для них. К ... 10 10 1
Info! Золотая раздача, скачанное не засчитывается.
Торрент: Зарегистрирован [2014-06-01 16:12] · скачан: 24 раз
Статус: √ проверено
Размер: 16.41 GB
Как cкачать? Как скачать Большая свадьба через торрент | qTorrent

% Раздел Тема Автор DL S | L
Фильмы 2013 [DVDrip, WEB-DLRip, HDrip] [ 745 MB ] Большая свадьба / The Big Wedding [ 2013 HDRip ] DUB Ворон Скачать
2 | 0
Фильмы 2013 [DVDrip, WEB-DLRip, HDrip] [ 1.45 GB ] Большая свадьба / The Big Wedding [2013 HDRip лицензия] Ворон Скачать
1 | 1
Фильмы [HD 720p, 1080p] (Хороший звук DUB, MVO) [ 5.24 GB ] Большая свадьба / The Big Wedding [ 2013 BDRip 720p] DUB Ворон Скачать
1 | 0

28-11-2019 20:33  

Отключить всю рекламу на сайте

    Дорогой пользователь! Огромная просьба, поблагодарите релизера, оцените раздачу и оставьте свои комментарий, если Вы скачали Большая свадьба через торрент бесплатно! Внесите свою лепту в развитие PiratBit!
    Комментировать посты могут только пользователи прошедшие не сложную регистрацию
    Показать сообщения:    

    Большая свадьба через торрент
    Скачать бесплатно Большая свадьба
    Большая свадьба скачать торрент
    Большая свадьба смотреть онлайн
    Cкачать фильм Большая свадьба бесплатно
    Большая свадьба скачать торрент в хорошем качестве
    Большая свадьба смотреть онлайн бесплатно в хорошем качестве


    Вы не можете начинать темы
    Вы не можете отвечать на сообщения
    Вы не можете редактировать свои сообщения
    Вы не можете удалять свои сообщения
    Вы не можете голосовать в опросах
    Вы не можете прикреплять файлы к сообщениям
    Вы можете скачивать файлы