Ссылка на приватное зеркало нашего сайта всего за 1$. Внимание количество ограничено!!!

2 сезон

iTunes

1 сезон

1

iTunes

iTunes

iTunes

1 сезон

RePack

30

ИГРА 18+

pack

ВАЖНО

!!Акция!!

Alien_RageХит недели

RePack

MK11
pack

Забери бонус

RePack

jed

!!Акция!!

Alien_Rage

RePack

fifa19

RePack

Assassins Creed: Odyssey

RePack

NEED FOR SPEED™ PAYBACK

4 сезон

9 сезон

Бесстыжие 9 сезон

Все сериалы

все сериалы на PB.wtf

RePack

FAR CRY 5
  

Плюс Любовь / Серия 1-16 из 16) (Алексей Карелин) [2014 г., мелодрама, SATRip] pb.wtf

Плюс Любовь через торрент pb.wtf

Размер: 8.38 GB | Добавлен: 6 лет 4 мес. назад | Торрент скачан:325 раз
Скачать  

01-06-2014 18:12 Плюс Любовь Скачать торрент  

Плюс ЛюбовьГод выпуска: 2014
Страна: Россия
Жанр: мелодрама
Продолжительность: 16 х 45 минут

Режиссер: Алексей Карелин

В ролях: Евгения Осипова, Олег Алмазов, Марина Могилевская, Алиса Признякова, Илья Алексеев, Александр Наумов

Описание: Люба скромная, тихая девушка, воспитанная властной матерью, которая с детства внушала ей, что Люба глупое и никчемное создание. Встреча с Димой, его любовь и забота заставляют Любу усомниться в том, что она так уж безнадежна. Сможет ли Люба изменить отношение к себе и к жизни? Сможет ли найти способ стать счастливой?

Качество: SATRip
Формат: AVI
Видео кодек: DivX
Аудио кодек: MP3
Видео: MPEG4, DivX 5, 720x384 (1.875), 25.000 fps, 1 601 Kbps (0.232 bit/pixel)
Аудио: MP3, 48.0 KHz, 2 ch, 128 Kbps, CBR
скриншот   скриншот   скриншот   скриншот   скриншот   скриншот   скриншот   скриншот  

Код:

Формат                                   : AVI
Формат/Информация                        : Audio Video Interleave
Размер файла                             : 548 Мбайт
Продолжительность                        : 44 м.
Общий поток                              : 1739 Кбит/сек
Программа кодирования                    : VirtualDubMod 1.5.10.2 (build 2540/release)
Библиотека кодирования                   : VirtualDub build 29808/release

Видео
Идентификатор                            : 0
Формат                                   : MPEG-4 Visual
Параметр BVOP формата                    : Нет
Параметр QPel формата                    : Нет
Параметр GMC формата                     : Без точки перехода
Параметр матрицы формата                 : Default (H.263)
Идентификатор кодека                     : DX50
Идентификатор кодека/Подсказка           : DivX 5
Продолжительность                        : 44 м.
Битрейт                                  : 1601 Кбит/сек
Ширина                                   : 720 пикселей
Высота                                   : 384 пикселя
Соотношение сторон                       : 1,85:1
Частота кадров                           : 25,000 кадров/сек
Цветовое пространство                    : YUV
Субдискретизация насыщенности            : 4:2:0
Битовая глубина                          : 8 бит
Тип развёртки                            : Прогрессивная
Метод сжатия                             : С потерями
Бит/(Пиксели*Кадры)                      : 0.232
Размер потока                            : 505 Мбайт (92%)
Библиотека кодирования                   : DivX 6.8.5 (UTC 2009-08-20)

Аудио
Идентификатор                            : 1
Формат                                   : MPEG Audio
Версия формата                           : Version 1
Профиль формата                          : Layer 3
Режим                                    : Joint stereo
Расширение режима                        : MS Stereo
Идентификатор кодека                     : 55
Идентификатор кодека/Подсказка           : MP3
Продолжительность                        : 44 м.
Вид битрейта                             : Постоянный
Битрейт                                  : 128 Кбит/сек
Каналы                                   : 2 канала
Частота                                  : 48,0 КГц
Метод сжатия                             : С потерями
Размер потока                            : 40,4 Мбайт (7%)
Выравнивание                             : Соединение по промежуткам
Продолжительность промежутка             : 40  мс. (1,00 видеокадр)
Время предзагрузки промежутка            : 504  мс.
Библиотека кодирования                   : LAME3.90.3ЄЄЄЄЄЄЄЄЄЄ


pb.wtf



Скачать Плюс Любовь через торрент http://pic.kartinco.top/new/img/2014-06/01/2kqfy5qn58i3723grfe8lq5j1.jpg Скачать фильм Плюс Любовь через торрент бесплантно в хорошем качестве Описание: Люба скромная, тихая девушка, воспитанная властной матерью, которая с детства внушала ей, что Люба глупое и никчемное создание. ... 10 10 4
Info! Золотая раздача, скачанное не засчитывается.
Торрент: Зарегистрирован [2014-06-01 18:12] · скачан: 325 раз
Статус: √ проверено
Размер: 8.38 GB
Как cкачать? Как скачать Плюс Любовь через торрент | qTorrent

28-11-2019 20:33  

Отключить всю рекламу на сайте

    Дорогой пользователь! Огромная просьба, поблагодарите релизера, оцените раздачу и оставьте свои комментарий, если Вы скачали Плюс Любовь через торрент бесплатно! Внесите свою лепту в развитие PiratBit!
    Комментировать посты могут только пользователи прошедшие не сложную регистрацию
    Показать сообщения:    

    Плюс Любовь через торрент
    Скачать бесплатно Плюс Любовь
    Плюс Любовь скачать торрент
    Плюс Любовь смотреть онлайн
    Cкачать фильм Плюс Любовь бесплатно
    Плюс Любовь скачать торрент в хорошем качестве
    Плюс Любовь смотреть онлайн бесплатно в хорошем качестве


    Вы не можете начинать темы
    Вы не можете отвечать на сообщения
    Вы не можете редактировать свои сообщения
    Вы не можете удалять свои сообщения
    Вы не можете голосовать в опросах
    Вы не можете прикреплять файлы к сообщениям
    Вы можете скачивать файлы