Ссылка на приватное зеркало нашего сайта всего за 1$. Внимание количество ограничено!!!

2 сезон

iTunes

1 сезон

1

iTunes

iTunes

iTunes

1 сезон

RePack

30

ИГРА 18+

pack

ВАЖНО

!!Акция!!

Alien_RageХит недели

RePack

MK11
pack

Забери бонус

RePack

jed

!!Акция!!

Alien_Rage

RePack

fifa19

RePack

Assassins Creed: Odyssey

RePack

NEED FOR SPEED™ PAYBACK

4 сезон

9 сезон

Бесстыжие 9 сезон

Все сериалы

все сериалы на PB.wtf

RePack

FAR CRY 5
  

Роковое наследство / Параллельная жизнь / Серии: 1-12 из 12 (Сергей Бобров (II)) [2013 г., Детектив, приключения, криминал, HDTVRip] pb.wtf

Роковое наследство через торрент pb.wtf

Размер: 6.44 GB | Добавлен: 6 лет 4 мес. назад | Торрент скачан:380 раз
Скачать  

03-06-2014 20:55 Роковое наследство Скачать торрент  

Роковое наследство / Параллельная жизнь
Год выпуска: 2013
Страна: Россия Всемирные Русские Студии
Жанр: Детектив, приключения, криминал
Продолжительность: 12 х ~ 00:45:00
Режиссер: Сергей Бобров (II)
Продюссер: Авдей Кирьянов, Наталья Лазарева, Юрий Сапронов

Премьера в мире: 27 января 2014
Премьера (РФ): 2 июня 2014


В ролях: Виктория Романенко, Илья Коробко, Евгений Сидихин, Игорь Миркурбанов, Елена Котихина, Анатолий Дзиваев, Дмитрий Астрахан, Константин Желдин, Дмитрий Муляр, Дмитрий Готсдинер, Алёна Яковлева, Егор Баринов, Мария Баева, Наталья Ткаченко, Маргарита Иванова-Донская (IV), Арсений Гусев, Петар Зекавица, Игорь Недосейкин, Алёна Хмельницкая
Описание: Накануне свадьбы, молодой учитель из провинциального колледжа Владислав Михайлов, узнает, что он - подкидыш. Настоящие родители в начале 90-х спрятали Владика у знакомых, спасая сыну жизнь. Теперь, когда главный враг, олигарх Гаев, убит, Владик в безопасности. Больше всего он хочет узнать хоть что-то о своей семье. Вместе со своей невестой Тоней Владик начинает собирать информацию - пазл, части которого находятся у совершенно незнакомых друг с другом людей. Сами по себе эти обрывки информации ничего не значат, но собранные вместе они раскрывают тайну семьи.
Качество: HDTVRip
Формат: AVI
Видео кодек: XviD
Аудио кодек: AC3
Видео: Xvid 720x400, 25000fps, 1 485 Kbps
Аудио: Dolby AC3, 48000Hz, stereo, 192kbps
Релиз от: LORENZO





General
Format : AVI
Format/Info : Audio Video Interleave
File size : 550 MiB
Duration : 43mn 46s
Overall bit rate : 1 756 Kbps
Writing application : VirtualDubMod 1.5.10.3 | (build 2550/release)
Writing library : VirtualDubMod build 2550/release

Video
ID : 0
Format : MPEG-4 Visual
Codec ID : XVID
Codec ID/Hint : XviD
Duration : 43mn 46s
Bit rate : 1 486 Kbps
Width : 720 pixels
Height : 400 pixels
Display aspect ratio : 16:9
Frame rate : 25.000 fps
Color space : YUV
Chroma subsampling : 4:2:0
Compression mode : Lossy
Bits/(Pixel*Frame) : 0.206
Stream size : 465 MiB (85%)

Audio
ID : 1
Format : AC-3
Format/Info : Audio Coding 3
Codec ID : 2000
Duration : 43mn 46s
Bit rate mode : Constant
Bit rate : 192 Kbps
Channel(s) : 2 channels
Sampling rate : 48.0 KHz
Compression mode : Lossy
Stream size : 60.1 MiB (11%)
Alignment : Aligned on interleaves

Внимание! Раздача ведётся путём добавления новых серий; при каждом добавлении создётся новый торрент. Чтобы начать докачку новой серии, пользователям необходимо сделать следующее:
(1) остановить скачивание,
(2) удалить старый торрент у себя из клиента (старые серии удалять не надо),
(3) скачать новый торрент и запустить его у себя в клиенте вместо старого, при этом указать клиенту путь в старую папку куда и должно происходить скачивание новых серий.
Ваш клиент при этом должен произвести хеширование (проверку) старой папки (если не производит сам - помогите ему сделать это), и будет докачивать только те серии которых у вас ещё нет. Старые серии при этом не удаляются, а продолжают раздаваться!
Eсли вы уже удалили старые серии, то предотвратить повторную закачку старых серий можно, отжав галочку в соответсвующих местах при запуске нового торрента. По возможности, желательно не удалять старые серии как можно дольше чтобы релизёр не столько продолжал раздавать старые серии, а смог сконцентрироваться на новых.
Добавил с 10-12 серии!Обновите торрент! pb.wtf



Скачать Роковое наследство через торрент http://pic.kartinco.top/images/6/42few.jpg Скачать фильм Роковое наследство через торрент бесплантно в хорошем качестве Описание: Накануне свадьбы, молодой учитель из провинциального колледжа Владислав Михайлов, узнает, что он - подкидыш. Настоящие родители в ... 9.2 10 13
Торрент: Зарегистрирован [2014-06-06 03:24] · скачан: 380 раз
Статус: √ проверено
Размер: 6.44 GB
Как cкачать? Как скачать Роковое наследство через торрент | qTorrent

% Раздел Тема Автор DL S | L
Наши сериалы [ 24.06 GB ] Роковое наследство / Параллельная жизнь / Серии: 1-12 из 12 ) [2013 HDTV 1080p] lug30 Скачать
1 | 0

28-11-2019 20:33  

Отключить всю рекламу на сайте

06-06-2014 03:25 Роковое наследство Скачать торрент  

Добавил с 10-12 серии!Обновите торрент!pb.wtf



    Дорогой пользователь! Огромная просьба, поблагодарите релизера, оцените раздачу и оставьте свои комментарий, если Вы скачали Роковое наследство через торрент бесплатно! Внесите свою лепту в развитие PiratBit!
    Комментировать посты могут только пользователи прошедшие не сложную регистрацию
    Показать сообщения:    

    Роковое наследство через торрент
    Скачать бесплатно Роковое наследство
    Роковое наследство скачать торрент
    Роковое наследство смотреть онлайн
    Cкачать фильм Роковое наследство бесплатно
    Роковое наследство скачать торрент в хорошем качестве
    Роковое наследство смотреть онлайн бесплатно в хорошем качестве


    Вы не можете начинать темы
    Вы не можете отвечать на сообщения
    Вы не можете редактировать свои сообщения
    Вы не можете удалять свои сообщения
    Вы не можете голосовать в опросах
    Вы не можете прикреплять файлы к сообщениям
    Вы можете скачивать файлы