1 сезон

1 сезон

iTunes

1

КиноПоиск HD

Кинопоиск HD

iTunes

13

1 сезон

RePack

30

Новинка

ВАЖНО

ИГРА 18+

pack

RePack

MK11
pack

Легкие деньги

RePack

jed

RePack

fifa19

RePack

RDR2

RePack

NEED FOR SPEED™ PAYBACK

4 сезон

9 сезон

Бесстыжие 9 сезон

Все сериалы

все сериалы на PB.wtf

RePack

FAR CRY 5
  
Magnet ссылка

В последний момент / The Last Minute (Стивен Норрингтон / Stephen Norrington) [2001 г., Драма, Триллер, DVDRip] [MVO] pb.wtf

В последний момент через торрент pb.wtf

Размер: 1.37 GB | Добавлен: 6 лет 10 мес. назад | Торрент скачан:66 раз
Скачать  

04-06-2014 10:16 В последний момент Скачать торрент  

В последний момент / The Last Minute

Год выпуска: 2001
Страна: США
Жанр: Драма, Триллер
Продолжительность: 01:50:02
Перевод: Профессиональный (многоголосый, закадровый)
Субтитры: нет

Режиссер: Стивен Норрингтон

В ролях: Макс Бисли, Эмили Корри, Том Белл, Киаран МакМенамин, Джейсон Айзекс, Кейт Эшфилд, Энтони Хиггинс, Джозеф Беннетт, Ронни МакКанн, Фрэнк Харпер

Описание: Стрелки часов проходит последний круг, но этого никто не знает. Никто, кроме Билли Берна - молодого, неотразимого и талантливого. На улицах, в клубах и офисах Лондона все только и говорят о том, что ему принадлежит будущее. Но Билли знает, что его жизнь кончена. За какое-то мгновение окружающий мир рассыпается на мелкие осколки, и он все глубже погружается на лондонское «дно» - в опасную обитель убийц, воров, наркоторговцев и агентов по поиску молодых дарований…



Качество: DVDRip
Формат: AVI
Видео кодек: XviD
Аудио кодек: AC3
Видео: 704x288 (2.44:1), 25 fps, DivX ~1392 kbps avg, 0.27 bit/pixel
Аудио: 48 kHz, AC3 Dolby Digital, 3/2 (L,C,R,l,r) + LFE ch, ~384.00 kbps avg
General
Complete name : E:\INTERNET\The Last Minute.2001.DVDRip.[MVO]_L.avi
Format : AVI
Format/Info : Audio Video Interleave
File size : 1.37 GiB
Duration : 1h 50mn
Overall bit rate : 1 787 Kbps
Writing application : VirtualDubMod 1.4.13
Writing library : VirtualDub build 30009/release

Video
ID : 0
Format : MPEG-4 Visual
Format settings, BVOP : 1
Format settings, QPel : No
Format settings, GMC : No warppoints
Format settings, Matrix : Default (H.263)
Muxing mode : Packed bitstream
Codec ID : DX50
Codec ID/Hint : DivX 5
Duration : 1h 50mn
Bit rate : 1 393 Kbps
Width : 704 pixels
Height : 288 pixels
Display aspect ratio : 2.40:1
Frame rate : 25.000 fps
Color space : YUV
Chroma subsampling : 4:2:0
Bit depth : 8 bits
Scan type : Progressive
Compression mode : Lossy
Bits/(Pixel*Frame) : 0.275
Stream size : 1.07 GiB (78%)
Writing library : DivX 5.0.5 (UTC 2003-04-24)

Audio
ID : 1
Format : AC-3
Format/Info : Audio Coding 3
Mode extension : CM (complete main)
Codec ID : 2000
Duration : 1h 50mn
Bit rate mode : Constant
Bit rate : 384 Kbps
Channel(s) : 6 channels
Channel positions : Front: L C R, Side: L R, LFE
Sampling rate : 48.0 KHz
Bit depth : 16 bits
Compression mode : Lossy
Stream size : 302 MiB (21%)
Alignment : Split accross interleaves
Interleave, duration : 40 ms (1.00 video frame)
Interleave, preload duration : 500 ms
скриншот   скриншот   скриншот   скриншот   скриншот   скриншот   скриншот  
pb.wtf



Скачать В последний момент через торрент http://i61.fastpic.ru/big/2014/0603/8c/39307efa52f20586b8d8a1e88fbc468c.jpg Скачать фильм В последний момент через торрент бесплантно в хорошем качестве Описание: Стрелки часов проходит последний круг, но этого никто не знает. Никто, кроме Билли Берна - молодого, неотразимого и талантливого. ... 10 10 2
Торрент: Зарегистрирован [2014-06-04 10:16] · скачан: 66 раз
Статус: √ проверено
Размер: 1.37 GB
Как cкачать? Как скачать В последний момент через торрент | UTorrent

28-11-2019 20:33  

Отключить всю рекламу на сайте

17-06-2014 20:07 В последний момент Скачать торрент  

без башенный фильм :jest3: sarcastic pb.wtf



    Дорогой пользователь! Огромная просьба, поблагодарите релизера, оцените раздачу и оставьте свои комментарий, если Вы скачали В последний момент через торрент бесплатно! Внесите свою лепту в развитие PiratBit!
    Комментировать посты могут только пользователи прошедшие не сложную регистрацию
    Показать сообщения:    

    В последний момент через торрент
    Скачать бесплатно В последний момент
    В последний момент скачать торрент
    В последний момент смотреть онлайн
    Cкачать фильм В последний момент бесплатно
    В последний момент скачать торрент в хорошем качестве
    В последний момент смотреть онлайн бесплатно в хорошем качестве


    Вы не можете начинать темы
    Вы не можете отвечать на сообщения
    Вы не можете редактировать свои сообщения
    Вы не можете удалять свои сообщения
    Вы не можете голосовать в опросах
    Вы не можете прикреплять файлы к сообщениям
    Вы можете скачивать файлы