Мега распродажа FORZA HORIZON 4 ULTIMATE+ВСЕ DLC+ОНЛАЙН всего за 499р. 349 руб. (супер цена). Внимание количество ограничено!!!

iTunes

1+1

iTunes

мы

iTunes

1

1 сезон

Чернобыль

1 сезон

Ральф против интернета

Лицензия

ПШазам

8 сезон

Игра престолов

Лицензия

30
pack

ВАЖНО

!!Акция!!

Alien_RageХит недели

RePack

Resident Evil 21

ИГРА 18+

pack

RePack

Metro:Exodus

!!Акция!!

Alien_Rage

RePack

fifa19

RePack

Assassins Creed: Odyssey

RePack

NEED FOR SPEED™ PAYBACK

3 сезон

9 сезон

Бесстыжие 9 сезон

Все сериалы

все сериалы на PB.wtf

RePack

FAR CRY 5
Ребята, катастрофически не хватает 2730р. для оплаты серверов за ИЮНЬ (всвязи с блокировками трафик упал в 3 раза), 1-2р., выручайте.
  

Псих команда / Команда мечты / The Dream Team (Ховард Зифф / Howard Zieff) [1989, Комедия, Криминал, DVDRip] [MVO] (СТС) pb.wtf

Псих команда через торрент pb.wtf

Размер: 1.43 GB | Добавлен: 5 лет 1 мес. назад | Торрент скачан:108 раз
Скачать  

04-06-2014 11:17 Псих команда Скачать торрент  

Псих команда / Команда мечты / The Dream Team
Год выпуска: 1989
Страна: США
Жанр: Комедия, Криминал
Продолжительность: 01:47:40
Перевод: Профессиональный (многоголосый закадровый)[Санкт-Петербург 6 канал по заказу СТС, 1998 год]
Cубтитры: нет

Режиссер: Ховард Зифф / Howard Zieff

В ролях: Майкл Китон (Michael Keaton), Кристофер Ллойд (Christopher Lloyd), Питер Бойл (Peter Boyle), Стефен Ферст (Stephen Furst), Деннис Буцикарис (Dennis Boutsikaris), Лоррейн Бракко (Lorraine Bracco), Майло О`Ши (Milo O'Shea), Филип Боско (Philip Bosco), Джеймс Римар (James Remar), Джек Гилпин (Jack Gilpin)

Описание: Прогрессивный врач-психиатр, считая что это может помочь в лечении его подопечных, вывозит четырех психов в город на бейсбольный матч. Однако, волей обстоятельств, он попадает в крутую историю и исчезает, а психи остаются в городе одни, предоставленные сами себе. Билли (Китон), патологический лжец с болезненной склонностью к паникерству, попадает из одной истории в другую вместе со своими не совсем адекватными товарищами: Генри (Кристофер Ллойд), придурком-ловкачом, Джеком (Питер Бойл), бывшим высокопоставленным рекламистам, считающим себя Христом, и Альбертом (Стивен Ферст), кататоником, проходящим курс психоанализа…
В этом развеселом фарсе компания психов переживает массу невероятных приключений, пытаясь найти своего доктора и вызволить его из лап парочки продажных копов.



Качество: DVDRip
Формат видео: AVI
Видео кодек: XviD
Аудио кодек: AC3
Видео: 720x552 (1.30:1), 25 fps, XviD MPEG-4 ~1797 kbps avg, 0.18 bit/pixel
Аудио: 48 kHz, AC3 Dolby Digital, 1/0 (C) ch, ~96.00 kbps avg
General
Complete name : D:\dream team\Команда Мечты_The Dream Team [1989.DVDRip].avi
Format : AVI
Format/Info : Audio Video Interleave
Format profile : OpenDML
File size : 1.43 GiB
Duration : 1h 47mn
Overall bit rate : 1 901 Kbps
TCOD : 0
TCDO : 64608800000
Video
ID : 0
Format : MPEG-4 Visual
Format profile : Advanced Simple@L5
Format settings, BVOP : 2
Format settings, QPel : No
Format settings, GMC : No warppoints
Format settings, Matrix : Default (H.263)
Muxing mode : Packed bitstream
Codec ID : XVID
Codec ID/Hint : XviD
Duration : 1h 47mn
Bit rate : 1 713 Kbps
Width : 720 pixels
Height : 552 pixels
Display aspect ratio : 4:3
Frame rate : 25.000 fps
Color space : YUV
Chroma subsampling : 4:2:0
Bit depth : 8 bits
Scan type : Progressive
Compression mode : Lossy
Bits/(Pixel*Frame) : 0.172
Stream size : 1.29 GiB (90%)
Writing library : XviD 64
Audio
ID : 1
Format : AC-3
Format/Info : Audio Coding 3
Mode extension : CM (complete main)
Format settings, Endianness : Big
Codec ID : 2000
Duration : 1h 47mn
Bit rate mode : Constant
Bit rate : 96.0 Kbps
Channel(s) : 1 channel
Channel positions : Front: C
Sampling rate : 48.0 KHz
Bit depth : 16 bits
Compression mode : Lossy
Stream size : 73.9 MiB (5%)
Alignment : Aligned on interleaves
Interleave, duration : 250 ms (6.25 video frames)
Interleave, preload duration : 224 ms
скриншот   скриншот   скриншот   скриншот   скриншот   скриншот   скриншот   скриншот   скриншот   скриншот  
pb.wtf



Скачать Псих команда через торрент http://i62.fastpic.ru/big/2014/0601/bf/41a3ea5d552456c8193025a7c6892cbf.jpg Скачать фильм Псих команда через торрент бесплантно в хорошем качестве Описание: Прогрессивный врач-психиатр, считая что это может помочь в лечении его подопечных, вывозит четырех психов в город на бейсбольный ... 10 10 5
Торрент: Зарегистрирован [2014-06-04 11:17] · скачан: 108 раз
Статус: √ проверено
Размер: 1.43 GB
Как cкачать? Как скачать Псих команда через торрент | qTorrent


>> Регистрируемся здесь <<






Отзывы и комментарии о схеме читаем и пишем здесь: ---> Отзывы и комментарии о схеме

Новые благодарочки в телеграм довольных пользователей:
скриншот   скриншот   скриншот   скриншот   скриншот

04-06-2014 12:03 Псих команда Скачать торрент  

О, а звук 1/0 (C) ch, ~96.00 kbps avg, оказывается, очень даже ничего!
Как в молодости...pb.wtf



    Дорогой пользователь! Огромная просьба, поблагодарите релизера, оцените раздачу и оставьте свои комментарий, если Вы скачали Псих команда через торрент бесплатно! Внесите свою лепту в развитие PiratBit!
    Комментировать посты могут только пользователи прошедшие не сложную регистрацию
    Показать сообщения:    

    Псих команда через торрент
    Скачать бесплатно Псих команда
    Псих команда скачать торрент
    Псих команда смотреть онлайн
    Cкачать фильм Псих команда бесплатно
    Псих команда скачать торрент в хорошем качестве
    Псих команда смотреть онлайн бесплатно в хорошем качестве


    Вы не можете начинать темы
    Вы не можете отвечать на сообщения
    Вы не можете редактировать свои сообщения
    Вы не можете удалять свои сообщения
    Вы не можете голосовать в опросах
    Вы не можете прикреплять файлы к сообщениям
    Вы можете скачивать файлы