2 сезон

iTunes

MVO

1

2 сезон

iTunes

iTunes

1 сезон

RePack

30

Новинка

ВАЖНО

ИГРА 18+

pack

RePack

MK11
pack

Легкие деньги

RePack

jed

RePack

fifa19

RePack

RDR2

RePack

NEED FOR SPEED™ PAYBACK

4 сезон

9 сезон

Бесстыжие 9 сезон

Все сериалы

все сериалы на PB.wtf

RePack

FAR CRY 5

Anonymous, доброй ночи, мы не успеваем собрать деньги на оплату серверов за декабрь и январь, помогите нам пожалуйста в это трудное время. В качестве благодарности мы отключим Вам всю рекламу на сайте (укажите свой ник в строку Ваше имя)!

×
  
Magnet ссылка

3 дня на убийство / 3 Days to Kill (МакДжи / McG) [2014 г., Боевик, триллер, драма, криминал, BDRip-AVC] [Театральная версия] DUB Лицензия pb.wtf

3 дня на убийство через торрент pb.wtf

Размер: 1.46 GB | Добавлен: 6 лет 7 мес. назад | Торрент скачан:1043 раза
Скачать  

04-06-2014 15:16 3 дня на убийство Скачать торрент  

3 дня на убийство / 3 Days to Kill
Год выпуска: 2014
Страна: США, Франция / Relativity Media, EuropaCorp, Wonderland Sound and Vision, 3DTK, Feelgood Entertainment
Жанр: Боевик, триллер, драма, криминал
Продолжительность: 01:57:02
Перевод: Дубляж [BD RUS]
Субтитры: Русские, английские (SDH)

Режиссер: МакДжи / McG



В ролях: Кевин Костнер, Эмбер Хёрд, Хейли Стайнфелд, Конни Нильсен, Томас Лемаркус, Рихард Заммель, Марк Андреони, Бруно Риччи, Йонас Блоке, Эрик Эбони

Описание: В секретной лаборатории ученые разработали препарат, который позволяет человеку справиться с любой неизлечимой болезнью. Руководство спецслужб предлагает принять это лекарство экс-агенту спецслужб Итану Раннеру, которому врачи объявили смертельный диагноз. Но он должен выполнить еще одно задание, которое, впрочем, может стоить ему жизни. Теперь вокруг Раннера начинают происходить странные вещи. Что это – галлюцинации, побочный эффект от таблеток или мир действительно полон ужаса и кошмара?

Качество: BDRip-AVC
Формат: MKV
Видео кодек: H.264
Аудио кодек: AC3
Видео: 960x404 (2,40:1), 23,976 fps, 1595 Кbps, 0.172 bit/pixel
Аудио: 48 kHz, AC3 Dolby Digital, 2/0 (L,R) ch, 192.00 kbps

Релиз группы:
Автор рипа: potroks

Общее
Уникальный идентификатор : 210825467949312407501806557346976086615 (0x9E9B8217D79AF0C88E044EDEC491BA57)
Полное имя : 3.Dnya.na.Ubiystvo.2014.Theatrical.RUS.BDRip.x264.-HELLYWOOD.mkv
Формат : Matroska
Версия формата : Version 4 / Version 2
Размер файла : 1,46 Гбайт
Продолжительность : 1 ч. 57 м.
Общий поток : 1786 Кбит/сек
Название фильма : HELLYWOOD - rip by potroks
Дата кодирования : UTC 2014-06-04 05:51:35
Программа кодирования : mkvmerge v5.9.0 ('On The Loose') built on Dec 15 2012 16:39:58
Библиотека кодирования : libebml v1.3.0 + libmatroska v1.4.0

Видео
Идентификатор : 1
Формат : AVC
Формат/Информация : Advanced Video Codec
Профиль формата : High@L4.1
Параметр CABAC формата : Да
Параметр ReFrames формата : 12 кадров
Идентификатор кодека : V_MPEG4/ISO/AVC
Продолжительность : 1 ч. 57 м.
Битрейт : 1595 Кбит/сек
Ширина : 960 пикселей
Высота : 404 пикселя
Соотношение сторон : 2,40:1
Режим частоты кадров : Постоянный
Частота кадров : 23,976 кадра/сек
Цветовое пространство : YUV
Субдискретизация насыщенности : 4:2:0
Битовая глубина : 8 бит
Тип развёртки : Прогрессивная
Бит/(Пиксели*Кадры) : 0.172
Размер потока : 1,27 Гбайт (87%)
Заголовок : 3 Days to Kill
Библиотека кодирования : x264 core 130 r2273 b3065e6
Настройки программы : cabac=1 / ref=12 / deblock=1:-2:-2 / analyse=0x3:0x133 / me=umh / subme=11 / psy=1 / psy_rd=1.04:0.00 / mixed_ref=1 / me_range=48 / chroma_me=1 / trellis=2 / 8x8dct=1 / cqm=0 / deadzone=21,11 / fast_pskip=1 / chroma_qp_offset=-2 / threads=9 / lookahead_threads=6 / sliced_threads=0 / nr=0 / decimate=0 / interlaced=0 / bluray_compat=0 / constrained_intra=0 / bframes=13 / b_pyramid=2 / b_adapt=2 / b_bias=0 / direct=3 / weightb=1 / open_gop=0 / weightp=2 / keyint=250 / keyint_min=23 / scenecut=40 / intra_refresh=0 / rc_lookahead=60 / rc=2pass / mbtree=0 / bitrate=1595 / ratetol=1.0 / qcomp=0.70 / qpmin=0 / qpmax=69 / qpstep=4 / cplxblur=20.0 / qblur=0.5 / vbv_maxrate=20000 / vbv_bufsize=25000 / nal_hrd=none / ip_ratio=1.35 / pb_ratio=1.25 / aq=1:0.80
Язык : English
Default : Да
Forced : Нет

Аудио
Идентификатор : 2
Формат : AC-3
Формат/Информация : Audio Coding 3
Расширение режима : CM (complete main)
Параметр Endianness формата : Big
Идентификатор кодека : A_AC3
Продолжительность : 1 ч. 57 м.
Вид битрейта : Постоянный
Битрейт : 192 Кбит/сек
Каналы : 2 канала
Расположение каналов : Front: L R
Частота : 48,0 КГц
Битовая глубина : 16 бит
Метод сжатия : С потерями
Задержка видео : 900 мс.
Размер потока : 161 Мбайт (11%)
Заголовок : Dub | DD 2.0 @ 192 kbps - BD CEE
Язык : Russian
Default : Да
Forced : Да

Текст #1
Идентификатор : 3
Формат : UTF-8
Идентификатор кодека : S_TEXT/UTF8
Идентификатор кодека/Информация : UTF-8 Plain Text
Язык : Russian
Default : Нет
Forced : Нет

Текст #2
Идентификатор : 4
Формат : UTF-8
Идентификатор кодека : S_TEXT/UTF8
Идентификатор кодека/Информация : UTF-8 Plain Text
Заголовок : SDH
Язык : English
Default : Нет
Forced : Нет

Меню
00:03:35.131 : en:(01)00:03:35:131
00:06:55.206 : en:(02)00:06:55:206
00:10:49.482 : en:(03)00:10:49:482
00:15:27.468 : en:(04)00:15:27:468
00:20:18.467 : en:(05)00:20:18:467
00:24:32.721 : en:(06)00:24:32:721
00:28:36.214 : en:(07)00:28:36:214
00:33:25.419 : en:(08)00:33:25:419
00:36:53.044 : en:(09)00:36:53:044
00:39:32.912 : en:(10)00:39:32:912
00:43:14.925 : en:(11)00:43:14:925
00:48:20.730 : en:(12)00:48:20:730
00:52:12.379 : en:(13)00:52:12:379
00:56:39.854 : en:(14)00:56:39:854
01:07:27.376 : en:(15)01:07:27:376
01:12:36.602 : en:(16)01:12:36:602
01:18:50.809 : en:(17)01:18:50:809
01:24:20.013 : en:(18)01:24:20:013
01:29:43.044 : en:(19)01:29:43:044
01:36:25.529 : en:(20)01:36:25:529
01:39:32.674 : en:(21)01:39:32:674
01:46:41.352 : en:(22)01:46:41:352
01:49:38.821 : en:(23)01:49:38:821
01:57:01.764 : en:(24)01:57:01:764

pb.wtf



Скачать 3 дня на убийство через торрент http://pic.kartinco.top/images/6/iy581.jpg Скачать фильм 3 дня на убийство через торрент бесплантно в хорошем качестве Описание: В секретной лаборатории ученые разработали препарат, который позволяет человеку справиться с любой неизлечимой болезнью. ... 9.4 10 16
Торрент: Зарегистрирован [2014-06-04 15:16] · скачан: 1 043 раз
Статус: √ проверено
Размер: 1.46 GB
Как cкачать? Как скачать 3 дня на убийство через торрент | UTorrent

% Раздел Тема Автор DL S | L
Фильмы 2014 [DVDrip, WEB-DLRip, HDrip] [ 2.18 GB ] 3 дня на убийство / 3 Days to Kill [2014 BDRip-AVC] [Театральная версия] DUB potroks Скачать
1 | 0
Фильмы [HD 720p, 1080p] (Хороший звук DUB, MVO) [ 5.35 GB ] 3 дня на убийство / 3 Days to Kill [2014 BDRip 720p] [Театральная версия] DUB potroks Скачать
1 | 0

28-11-2019 20:33  

Отключить всю рекламу на сайте

06-06-2014 13:25 3 дня на убийство Скачать торрент  

Взят 131 раз и ни одного комента!Как фильм ребята? :this:pb.wtf



11-06-2014 08:01 3 дня на убийство Скачать торрент  

На 1 разpb.wtf



    Дорогой пользователь! Огромная просьба, поблагодарите релизера, оцените раздачу и оставьте свои комментарий, если Вы скачали 3 дня на убийство через торрент бесплатно! Внесите свою лепту в развитие PiratBit!
    Комментировать посты могут только пользователи прошедшие не сложную регистрацию
    Показать сообщения:    

    3 дня на убийство через торрент
    Скачать бесплатно 3 дня на убийство
    3 дня на убийство скачать торрент
    3 дня на убийство смотреть онлайн
    Cкачать фильм 3 дня на убийство бесплатно
    3 дня на убийство скачать торрент в хорошем качестве
    3 дня на убийство смотреть онлайн бесплатно в хорошем качестве


    Вы не можете начинать темы
    Вы не можете отвечать на сообщения
    Вы не можете редактировать свои сообщения
    Вы не можете удалять свои сообщения
    Вы не можете голосовать в опросах
    Вы не можете прикреплять файлы к сообщениям
    Вы можете скачивать файлы