2 сезон

iTunes

MVO

1

2 сезон

iTunes

iTunes

1 сезон

RePack

30

Ultimate

ВАЖНО

ИГРА 18+

pack

RePack

MK11
pack

Легкие деньги

RePack

jed

RePack

fifa19

RePack

RDR2

RePack

NEED FOR SPEED™ PAYBACK

4 сезон

9 сезон

Бесстыжие 9 сезон

Все сериалы

все сериалы на PB.wtf

RePack

FAR CRY 5

Anonymous, добрый вечер, мы не успеваем собрать деньги на оплату серверов за декабрь и январь, помогите нам пожалуйста в это трудное время. В качестве благодарности мы отключим Вам всю рекламу на сайте (укажите свой ник в строку Ваше имя)!

×
  
Magnet ссылка

Алексей Леонов. Прыжок В Космос (Алексей Китайцев) [2014 г., WEBRip 1080p] pb.wtf

Алексей Леонов. Прыжок В Космос через торрент pb.wtf

Размер: 956 MB | Добавлен: 6 лет 7 мес. назад | Торрент скачан:33 раза
Скачать  

05-06-2014 04:39 Алексей Леонов. Прыжок В Космос Скачать торрент  


Алексей Леонов. Прыжок В Космос
Год выпуска: 2014
Страна: Россия
Перевод: Не требуется
Режиссер: Алексей Китайцев
Продюссер: Александр Островский
Сценарий: Алексей Самолётов
Длительность: 44 мин.
Премьера в мире: 30 мая 2014 года
В ролях: Алексей Леонов
Описание: Алексей Леонов – первый человек Земли, который вышел в открытый космос. Именно он должен был стать первым человеком, ступившим на поверхность Луны. Но помешала политика. Именно Алексей Леонов был командиром первого международного советско-американского экипажа «Союз-Аполлон». В фильме редкие хроникальные кадры его выхода в открытый космос. Какие тайны скрывал первый выход человека в космос? Чем же на самом деле была закрытая «лунная программа»?
В фильм вошли малоизвестные эпизоды жизни прославленного космонавта. Например – история поступления Леонова в академию художеств в Риге. Об этой истории рассказывают два человека: сам Алексей Архипович и ректор академии, который оказался тем самым, случайно остановленным на улице рижским мальчишкой, который рассказывал Алексею Леонову об академии…
Качество: WEBRip 1080p
Формат: MP4
Видео кодек: AVC
Аудио кодек: AAC
Видео: 2750 Кбит/сек, 1920*1080 (16:9), в 25.000 кадров/сек, AVC (High@L4.0)(CABAC / 3 Ref Frames)
Аудио#1: Russia, 254 Кбит/сек, 44,1 КГц, 2 канала, ACC(LC)


Полное имя : C:\Users\El\Videos\Алексей Леонов. Прыжок в космос\Алексей Леонов. Прыжок в космос.mp4
Формат : MPEG-4
Профиль формата : Base Media
Идентификатор кодека : isom
Размер файла : 956 Мбайт
Продолжительность : 44 м.
Общий поток : 3009 Кбит/сек
Программа кодирования : Lavf55.37.101

Видео
Идентификатор : 1
Формат : AVC
Формат/Информация : Advanced Video Codec
Профиль формата : High@L4.0
Параметр CABAC формата : Да
Параметр ReFrames формата : 3 кадра
Идентификатор кодека : avc1
Идентификатор кодека/Информация : Advanced Video Coding
Продолжительность : 44 м.
Битрейт : 2750 Кбит/сек
Ширина : 1920 пикселей
Высота : 1080 пикселей
Соотношение сторон : 16:9
Режим частоты кадров : Постоянный
Частота кадров : 25,000 кадров/сек
Цветовое пространство : YUV
Субдискретизация насыщенности : 4:2:0
Битовая глубина : 8 бит
Тип развёртки : Прогрессивная
Бит/(Пиксели*Кадры) : 0.053
Размер потока : 874 Мбайт (91%)

Аудио
Идентификатор : 2
Формат : AAC
Формат/Информация : Advanced Audio Codec
Профиль формата : LC
Идентификатор кодека : 40
Продолжительность : 44 м.
Вид битрейта : Постоянный
Битрейт : 254 Кбит/сек
Каналы : 2 канала
Расположение каналов : Front: L R
Частота : 44,1 КГц
Метод сжатия : С потерями
Размер потока : 80,6 Мбайт (8%)
pb.wtf



Скачать Алексей Леонов. Прыжок В Космос через торрент http://pic.kartinco.top/images/6/ebeos.jpg Скачать фильм Алексей Леонов. Прыжок В Космос через торрент бесплантно в хорошем качестве Описание: Алексей Леонов – первый человек Земли, который вышел в открытый космос. Именно он должен был стать первым человеком, ступившим ... 10 10 5
Info! Золотая раздача, скачанное не засчитывается.
Торрент: Зарегистрирован [2014-06-05 04:39] · скачан: 33 раз
Статус: √ проверено
Размер: 956 MB
Как cкачать? Как скачать Алексей Леонов. Прыжок В Космос через торрент | UTorrent

28-11-2019 20:33  

Отключить всю рекламу на сайте

05-06-2014 15:14 Алексей Леонов. Прыжок В Космос Скачать торрент  

Цитата:

Перевод: Профессиональный одноголосый

не думаю что это применимо для данной передачи winkpb.wtf



05-06-2014 16:14 Алексей Леонов. Прыжок В Космос Скачать торрент  

Messa-fan писал(а):

Цитата:

Перевод: Профессиональный одноголосый

не думаю что это применимо для данной передачи wink

Согласен.pb.wtf



    Дорогой пользователь! Огромная просьба, поблагодарите релизера, оцените раздачу и оставьте свои комментарий, если Вы скачали Алексей Леонов. Прыжок В Космос через торрент бесплатно! Внесите свою лепту в развитие PiratBit!
    Комментировать посты могут только пользователи прошедшие не сложную регистрацию
    Показать сообщения:    

    Алексей Леонов. Прыжок В Космос через торрент
    Скачать бесплатно Алексей Леонов. Прыжок В Космос
    Алексей Леонов. Прыжок В Космос скачать торрент
    Алексей Леонов. Прыжок В Космос смотреть онлайн
    Cкачать фильм Алексей Леонов. Прыжок В Космос бесплатно
    Алексей Леонов. Прыжок В Космос скачать торрент в хорошем качестве
    Алексей Леонов. Прыжок В Космос смотреть онлайн бесплатно в хорошем качестве


    Вы не можете начинать темы
    Вы не можете отвечать на сообщения
    Вы не можете редактировать свои сообщения
    Вы не можете удалять свои сообщения
    Вы не можете голосовать в опросах
    Вы не можете прикреплять файлы к сообщениям
    Вы можете скачивать файлы