Всегда рабочее зеркало просто перед .vidak.icu напиши любое слово или цифру, Пример http://hqc.vidak.icu

>

7.4

iTunes

7.4

2 сезон

6.6

iTunes

1

7.4

2 сезон

7.2

iTunes

6.0

MVO

13

6.1

iTunes

8.3

Пиратка

30

ULTIMATE

pack

9.9

Лицензия

ВАЖНО

ИГРА 18+

pack

7.3

RePack

MK11

7.7

RePack

jed

7.8

RePack

fifa19

8.5

RePack

RDR2

RePack

NEED FOR SPEED™ PAYBACK

1 сезон

9 сезон

Бесстыжие 9 сезон

Все сериалы

все сериалы на PB.wtf

RePack

FAR CRY 5

Anonymous, доброй ночи, мы катастрофически не успеваем собрать деньги на оплату серверов, помогите нам пожалуйста 5,10,15р., для нас важна любая помощь . В качестве благодарности мы отключим Вам всю рекламу на сайте (укажите свой ник в строку Ваше имя)!

×
  
Magnet ссылка

Обними меня, взволнуй, поцелуй / Hold Me, Thrill Me, Kiss Me (Джоэль Хершман / Joel Hershman) [1992, комедия, DVDRip] 2x[AVO] (Володарский, Кузнецов) pb.wtf

Обними меня, взволнуй, поцелуй через торрент pb.wtf

Размер: 1.47 GB | Добавлен: 7 лет 7 мес. назад | Торрент скачан:47 раз
Смотреть онлайн Обними меня, взволнуй, поцелуй | Скачать    Ребята, помогите собрать деньги на оплату серверов!!!

05-06-2014 07:09 Обними меня, взволнуй, поцелуй Скачать торрент  

Обними меня, взволнуй, поцелуй / Hold Me, Thrill Me, Kiss Me«A nympho. Her virgin sister. His psycho ex. Hiding from the cops was the easy part!»
Год выпуска: 1992
Страна: США
Жанр: комедия
Продолжительность: 01:32:47
Перевод #1: Авторский (одноголосый, закадровый)[Володарский]
Перевод #2: Авторский (одноголосый, закадровый)[Кузнецов]
Cубтитры: нет

Режиссер: Джоэль Хершман / Joel Hershman

В ролях: Макс Пэрриш, Эдриенн Шелли, Шон Янг, Дайан Лэдд, Эйприл Рэйн, Бела Лехочки, Аня Сули, Тимоти Лири, Вик Тревино, Аллан Уорник

Описание: Аннотация от alenavova:
Некий вор, приятной и мужественной наружности, попадает в ловушки, расставленные "слабым" полом. Сначала под венец под дулом пистолета в руках красотки (Шон Янг), и оставив невесту с пулей в подвенечном платье, попадает потом в лапы незадачливой стриптизерки и начинающей порнозвезды Сабры. В доме Сабры он встречает истинную любовь в лице несовершеннолетней девственницы, любительницы собак, с отвращением взирающей на сексапильную старшую сестру Сабру. Скрываясь от полиции за убийство красотки, он вынужден сменить фамилию. Но призрак красотки преследует его постоянно.


Качество: DVDRip
Формат: AVI
Видео кодек: XviD
Аудио кодек: AC3
Видео: 640x480 (1.33:1), 23.976 fps, XviD build 73 ~1864 kbps avg, 0.25 bit/pixel
Аудио №1: 48 kHz, AC3 Dolby Digital, 2/0 (L,R) ch, ~192 kbps [Володарский]
Аудио №2: 48 kHz, AC3 Dolby Digital, 2/0 (L,R) ch, ~192 kbps [Кузнецов]

Цитата:

Обе дороги от alenavova. За синхрон спасибо ale_x2008
Рип от edich2

Обними меня, поцелуй меня - Hold Me, Thrill Me, Kiss Me [by ale_x2008].avi
Format : AVI
Format/Info : Audio Video Interleave
File size : 1.47 GiB
Duration : 1h 32mn
Overall bit rate : 2 263 Kbps
Movie name : Обними меня, поцелуй меня - Hold Me, Thrill Me, Kiss Me [by ale_x2008]
Director : ale_x2008
Genre : Comedy
Writing application : VirtualDubMod 1.5.10.3 (build 2550/release)
Original source form/Name : Movie
Comment : 31.05.2014

Video
ID : 0
Format : MPEG-4 Visual
Format profile : Advanced Simple@L5
Format settings, BVOP : 1
Format settings, QPel : No
Format settings, GMC : No warppoints
Format settings, Matrix : Default (MPEG)
Codec ID : XVID
Codec ID/Hint : XviD
Duration : 1h 32mn
Bit rate : 1 865 Kbps
Width : 640 pixels
Height : 480 pixels
Display aspect ratio : 4:3
Frame rate : 23.976 fps
Color space : YUV
Chroma subsampling : 4:2:0
Bit depth : 8 bits
Scan type : Progressive
Compression mode : Lossy
Bits/(Pixel*Frame) : 0.253
Stream size : 1.21 GiB (82%)
Writing library : XviD 73

Audio #1
ID : 1
Format : AC-3
Format/Info : Audio Coding 3
Mode extension : CM (complete main)
Format settings, Endianness : Big
Codec ID : 2000
Duration : 1h 32mn
Bit rate mode : Constant
Bit rate : 192 Kbps
Channel(s) : 2 channels
Channel positions : Front: L R
Sampling rate : 48.0 KHz
Bit depth : 16 bits
Compression mode : Lossy
Stream size : 127 MiB (8%)
Alignment : Split accross interleaves
Interleave, duration : 42 ms (1.00 video frame)
Interleave, preload duration : 500 ms

Audio #2
ID : 2
Format : AC-3
Format/Info : Audio Coding 3
Mode extension : CM (complete main)
Format settings, Endianness : Big
Codec ID : 2000
Duration : 1h 32mn
Bit rate mode : Constant
Bit rate : 192 Kbps
Channel(s) : 2 channels
Channel positions : Front: L R
Sampling rate : 48.0 KHz
Bit depth : 16 bits
Compression mode : Lossy
Stream size : 127 MiB (8%)
Alignment : Split accross interleaves
Interleave, duration : 42 ms (1.00 video frame)
Interleave, preload duration : 500 ms
скриншот   скриншот   скриншот   скриншот   скриншот   скриншот   скриншот   скриншот   скриншот   скриншот  
pb.wtf



Скачать Обними меня, взволнуй, поцелуй через торрент http://i63.fastpic.ru/big/2014/0604/7e/fd5cb528ba7363aa361f441c92c4e67e.jpg Скачать, смотреть онлайн Обними меня, взволнуй, поцелуй бесплантно в хорошем качестве Описание: Аннотация от alenavova:Некий вор, приятной и мужественной наружности, попадает в ловушки, расставленные "слабым" полом. Сначала ... 10 10 3
Торрент: Зарегистрирован [2014-06-05 07:09] · скачан: 47 раз
Статус: √ проверено
Размер: 1.47 GB
Как cкачать? Как скачать Обними меня, взволнуй, поцелуй через торрент | UTorrent

28-11-2019 20:33  

Отключить всю рекламу на сайте

    Дорогой пользователь! Огромная просьба, поблагодарите релизера, оцените раздачу и оставьте свои комментарий, если Вы скачали Обними меня, взволнуй, поцелуй через торрент бесплатно!
    Комментировать посты могут только пользователи прошедшие не сложную регистрацию
    Показать сообщения:    

    Обними меня, взволнуй, поцелуй через торрент
    Скачать бесплатно Обними меня, взволнуй, поцелуй
    Обними меня, взволнуй, поцелуй скачать торрент
    Обними меня, взволнуй, поцелуй смотреть онлайн
    Cкачать фильм Обними меня, взволнуй, поцелуй бесплатно
    Обними меня, взволнуй, поцелуй скачать торрент в хорошем качестве
    Обними меня, взволнуй, поцелуй смотреть онлайн бесплатно в хорошем качестве


    Вы не можете начинать темы
    Вы не можете отвечать на сообщения
    Вы не можете редактировать свои сообщения
    Вы не можете удалять свои сообщения
    Вы не можете голосовать в опросах
    Вы не можете прикреплять файлы к сообщениям
    Вы можете скачивать файлы