Всегда рабочее зеркало без VPN и Proxy просто перед .vidak.icu напиши любое слово или цифру, Пример http://m2qe.vidak.icu

MVO

2 сезон

1 сезон

1

1 сезон

iTunes

2 сезон

13

1 сезон

Deluxe

pack

Рекомендуем

Пиратка

30

ВАЖНО

RePack

MK11

RePack

jed

RePack

fifa19

RePack

RDR2

RePack

NEED FOR SPEED™ PAYBACK

Кинопоиск HD

6 сезон

 Острые козырьки 6 сезон

Все сериалы

все сериалы на PB.wtf

RePack

FAR CRY 5

Anonymous, нам критически не хватает 5601 руб. на оплату серверов и переферии за Апрель, помоги нам пожалуйста, вся надежда только на тебя. В благодарность мы отключим тебе всю рекламу на сайте!

×
  
Magnet ссылка

3 дня на убийство / 3 Days to Kill (МакДжи / McG) [2014, боевик, криминал, триллер, BD-Remux, USA Transfer, Дублированный, Лицензия] от R.G. HD-Films pb.wtf

3 дня на убийство через торрент pb.wtf

Размер: 22.97 GB | Добавлен: 7 лет 11 мес. назад | Торрент скачан:32 раза
Смотреть онлайн 3 дня на убийство | Скачать    Ребята, помогите собрать деньги на оплату серверов!!!

05-06-2014 21:52 3 дня на убийство Скачать торрент  

3 дня на убийство / 3 Days to Kill



Год выпуска: 2014
Страна: США, Франция, Греция, Россия
Жанр: боевик, криминал, триллер, драма, комедия
Продолжительность: 01:57:02
Перевод: Дублированный [Лицензия]
Субтитры: Русские (полные), Английские (полные)



Режиссер:
  • МакДжи / McG
В ролях:
  • Кевин Костнер, Эмбер Хёрд, Хейли Стайнфелд, Конни Нильсен, Томас Лемаркус, Рихард Заммель, Марк Андреони, Бруно Риччи, Йонас Блоке, Эрик Эбони
Описание: В секретной лаборатории ученые разработали препарат, который позволяет человеку справиться с любой неизлечимой болезнью. Руководство спецслужб предлагает принять это лекарство экс-агенту спецслужб Итану Раннеру, которому врачи объявили смертельный диагноз. Но он должен выполнить еще одно задание, которое, впрочем, может стоить ему жизни. Теперь вокруг Раннера начинают происходить странные вещи. Что это - галлюцинации, побочный эффект от таблеток или мир действительно полон ужаса и кошмара?



Качество: BD-Remux [USA Transfer]
Формат: MKV
Видео кодек: AVC
Аудио кодек: AC3
Видео: AVC, 1920x1080 (16:9), 23,976 fps, 26254 kbps, 0,528 bpp
Аудио №1: AC3, 48 kHz, 5.1 ch, 640 kbps, русский
Аудио №2: AC3, 48 kHz, 5.1 ch, 640 kbps, английский


Код:

Общее
Уникальный идентификатор                 : 213900022315388909923842324247175239789 (0xA0EBA553B02DB001A0B98777A240186D)
Полное имя                               : I:\3 дня на убийство (2014) BD-Remux.mkv
Формат                                   : Matroska
Версия формата                           : Version 4 / Version 2
Размер файла                             : 23,0 Гбайт
Продолжительность                        : 1 ч. 57 м.
Режим общего битрейта                    : Переменный
Общий поток                              : 28,1 Мбит/сек
Название фильма                          : 3 дня на убийство (2014)
Дата кодирования                         : UTC 2014-06-05 16:07:35
Программа кодирования                    : mkvmerge v6.6.0 ('The Edge Of The In Between') built on Dec  1 2013 17:55:00
Библиотека кодирования                   : libebml v1.3.0 + libmatroska v1.4.1
Attachment                               : Yes

Видео
Идентификатор                            : 1
Формат                                   : AVC
Формат/Информация                        : Advanced Video Codec
Профиль формата                          : High@L4.1
Параметр CABAC формата                   : Да
Параметр ReFrames формата                : 2 кадра
Идентификатор кодека                     : V_MPEG4/ISO/AVC
Продолжительность                        : 1 ч. 57 м.
Вид битрейта                             : Переменный
Битрейт                                  : 26,3 Мбит/сек
Ширина                                   : 1920 пикселей
Высота                                   : 1080 пикселей
Соотношение сторон                       : 16:9
Режим частоты кадров                     : Постоянный
Частота кадров                           : 23,976 кадра/сек
Цветовое пространство                    : YUV
Субдискретизация насыщенности            : 4:2:0
Битовая глубина                          : 8 бит
Тип развёртки                            : Прогрессивная
Бит/(Пиксели*Кадры)                      : 0.528
Размер потока                            : 21,5 Гбайт (93%)
Default                                  : Да
Forced                                   : Нет

Аудио #1
Идентификатор                            : 2
Формат                                   : AC-3
Формат/Информация                        : Audio Coding 3
Расширение режима                        : CM (complete main)
Параметр Endianness формата              : Big
Идентификатор кодека                     : A_AC3
Продолжительность                        : 1 ч. 57 м.
Вид битрейта                             : Постоянный
Битрейт                                  : 640 Кбит/сек
Каналы                                   : 6 каналов
Расположение каналов                     : Front: L C R, Side: L R, LFE
Частота                                  : 48,0 КГц
Битовая глубина                          : 16 бит
Метод сжатия                             : С потерями
Размер потока                            : 536 Мбайт (2%)
Заголовок                                : Дублированный, Blu-ray
Язык                                     : Russian
Default                                  : Да
Forced                                   : Нет

Аудио #2
Идентификатор                            : 3
Формат                                   : AC-3
Формат/Информация                        : Audio Coding 3
Расширение режима                        : CM (complete main)
Параметр Endianness формата              : Big
Идентификатор кодека                     : A_AC3
Продолжительность                        : 1 ч. 57 м.
Вид битрейта                             : Постоянный
Битрейт                                  : 640 Кбит/сек
Каналы                                   : 6 каналов
Расположение каналов                     : Front: L C R, Side: L R, LFE
Частота                                  : 48,0 КГц
Битовая глубина                          : 16 бит
Метод сжатия                             : С потерями
Размер потока                            : 536 Мбайт (2%)
Заголовок                                : Оригинал
Язык                                     : English
Default                                  : Нет
Forced                                   : Нет

Текст #1
Идентификатор                            : 4
Формат                                   : UTF-8
Идентификатор кодека                     : S_TEXT/UTF8
Идентификатор кодека/Информация          : UTF-8 Plain Text
Заголовок                                : Полные
Язык                                     : Russian
Default                                  : Нет
Forced                                   : Нет

Текст #2
Идентификатор                            : 5
Формат                                   : UTF-8
Идентификатор кодека                     : S_TEXT/UTF8
Идентификатор кодека/Информация          : UTF-8 Plain Text
Заголовок                                : Полные
Язык                                     : English
Default                                  : Нет
Forced                                   : Нет

Меню
00:00:00.000                             : en:Chapter 1
00:03:35.131                             : en:Chapter 2
00:06:55.206                             : en:Chapter 3
00:10:49.482                             : en:Chapter 4
00:15:27.468                             : en:Chapter 5
00:20:18.467                             : en:Chapter 6
00:24:32.721                             : en:Chapter 7
00:28:36.214                             : en:Chapter 8
00:33:25.419                             : en:Chapter 9
00:36:53.044                             : en:Chapter 10
00:39:32.912                             : en:Chapter 11
00:43:14.925                             : en:Chapter 12
00:48:20.730                             : en:Chapter 13
00:52:12.379                             : en:Chapter 14
00:56:39.854                             : en:Chapter 15
01:07:27.376                             : en:Chapter 16
01:12:36.602                             : en:Chapter 17
01:18:50.809                             : en:Chapter 18
01:24:20.013                             : en:Chapter 19
01:29:43.044                             : en:Chapter 20
01:36:25.529                             : en:Chapter 21
01:39:32.674                             : en:Chapter 22
01:46:41.352                             : en:Chapter 23
01:49:38.821                             : en:Chapter 24
01:57:01.764                             : en:Chapter 25

Бюджет фильма: $28 000 000
Премьера (мир): 12 февраля 2014
Премьера (РФ): 10 апреля 2014,
«Парадиз»

Релиз на Blu-Ray: 10 июня 2014,
«Парадиз / Активижен»,
...

Релиз на DVD: 10 июня 2014,
«Парадиз / Активижен»,
...






pb.wtf



Скачать 3 дня на убийство через торрент http://i64.fastpic.ru/big/2014/0606/3f/6e08b903c3e7a41959f17de40b14523f.png Скачать, смотреть онлайн 3 дня на убийство бесплантно в хорошем качестве Описание: В секретной лаборатории ученые разработали препарат, который позволяет человеку справиться с любой неизлечимой болезнью. ... 10 10 3
Info! Золотая раздача, скачанное не засчитывается.
Торрент: Зарегистрирован [2014-06-05 21:52] · скачан: 32 раз
Статус: √ проверено
Размер: 22.97 GB
Как cкачать? Как скачать 3 дня на убийство через торрент | UTorrent

% Раздел Тема Автор DL S | L
Фильмы [HD 720p, 1080p] (Хороший звук DUB, MVO) [ 13.25 GB ] 3 дня на убийство / 3 Days to Kill [2014 BDRip 1080p ] от R.G. HD-Films Seedtank Скачать
1 | 0
Фильмы 2014 [DVDrip, WEB-DLRip, HDrip] [ 1.46 GB ] 3 дня на убийство / Days to Kill [2014 HDRip-AVC] ] От R.G. PiratFilms White Smoke Скачать
1 | 0

28-11-2019 20:33  

Отключить всю рекламу на сайте

06-06-2014 00:56 3 дня на убийство Скачать торрент  

Дико скучныйpb.wtf



    Дорогой пользователь! Огромная просьба, поблагодарите релизера, оцените раздачу и оставьте свои комментарий, если Вы скачали 3 дня на убийство через торрент бесплатно!
    Комментировать посты могут только пользователи прошедшие не сложную регистрацию
    Показать сообщения:    

    3 дня на убийство через торрент
    Скачать бесплатно 3 дня на убийство
    3 дня на убийство скачать торрент
    3 дня на убийство смотреть онлайн
    Cкачать фильм 3 дня на убийство бесплатно
    3 дня на убийство скачать торрент в хорошем качестве
    3 дня на убийство смотреть онлайн бесплатно в хорошем качестве


    Вы не можете начинать темы
    Вы не можете отвечать на сообщения
    Вы не можете редактировать свои сообщения
    Вы не можете удалять свои сообщения
    Вы не можете голосовать в опросах
    Вы не можете прикреплять файлы к сообщениям
    Вы можете скачивать файлы