Мега распродажа FORZA HORIZON 4 ULTIMATE+ВСЕ DLC+ОНЛАЙН всего за 499р. 349 руб. (супер цена). Внимание количество ограничено!!!

iTunes

1+1

iTunes

мы

iTunes

1

1 сезон

Чернобыль

1 сезон

Ральф против интернета

Лицензия

ПШазам

8 сезон

Игра престолов

Лицензия

30
pack

ВАЖНО

!!Акция!!

Alien_RageХит недели

RePack

Resident Evil 21

ИГРА 18+

pack

RePack

Metro:Exodus

!!Акция!!

Alien_Rage

RePack

fifa19

RePack

Assassins Creed: Odyssey

RePack

NEED FOR SPEED™ PAYBACK

3 сезон

9 сезон

Бесстыжие 9 сезон

Все сериалы

все сериалы на PB.wtf

RePack

FAR CRY 5
Ребята, катастрофически не хватает 2730р. для оплаты серверов за ИЮНЬ (всвязи с блокировками трафик упал в 3 раза), 1-2р., выручайте.
  

Военный ныряльщик / Men of Honor (Джордж Тиллман мл. / George Tillman Jr.) [2000, Драма, биография, HDTVRip] [DUB] pb.wtf

Военный ныряльщик через торрент pb.wtf

Размер: 1.45 GB | Добавлен: 5 лет 1 мес. назад | Торрент скачан:483 раза
Скачать  

06-06-2014 07:00 Военный ныряльщик Скачать торрент  

Военный ныряльщик / Men of Honor
Год выпуска: 2000
Страна: США
Жанр: Драма, биография
Продолжительность: 01:58:22
Перевод: Профессиональный (дублированный)
Cубтитры: нет

Оригинальная аудиодорожка: нет

Режиссер: Джордж Тиллман мл. / George Tillman Jr.

В ролях: Роберт Де Ниро, Кьюба Гудинг мл., Шарлиз Терон, Онжаню Эллис, Хэл Холбрук, Майкл Рапапорт, Пауэрс Бут, Дэвид Кит, Холт МакКэллани, Дэвид Конрад

Описание: Фильм основан на реальных событиях из жизни легендарного водолаза Карла Брашира. Его наставник и старший офицер Билл Сандэй убежден, что неграм нечего делать во флоте, и самыми жестокими и бесчеловечными способами издевается и «обламывает» амбициозного новичка.
Однако ему это не удается, и более того, вскоре он начинает испытывать симпатию к этому чрезвычайно упертому парню, который скорее погибнет, чем покажет слабость. Вместе они пытаются сопротивляться бюрократам из командования ВМФ, которых не устраивает цвет кожи героя.
Карл всегда вызывается добровольцем на выполнение самых опасных секретных спецопераций, связанных с повышенным риском для жизни. Однако судьба приготовила ему куда более страшное испытание, преодолеть которое способен только настоящий герой.



Качество: HDTVRip
Формат: AVI
Видео кодек: XviD
Аудио кодек: AC3
Видео: MPEG4, XviD, 720x400 (16/9), 25.000 fps, 1 555 Kbps (0.216 bit/pixel)
Аудио: AC-3, 48.0 KHz, 2 ch, 192 Kbps, CBR
Рип с канала Первый HD. Из видеоряда удален логотип канала, остались периодические вставки с названием фильма.

Сравнение скриншотов BD и HDTV
Автор рипа miha2154
Общее
Полное имя : K:\Военный ныряльщик.avi
Формат : AVI
Формат/Информация : Audio Video Interleave
Размер файла : 1,45 Гбайт
Продолжительность : 1 ч. 58 м.
Общий поток : 1757 Кбит/сек
Название фильма : Военный ныряльщик / Men of Honor (2000)
Программа кодирования : VirtualDubMod 1.5.10.2 (build 2540/release)
Библиотека кодирования : VirtualDubMod build 2540/release
Правообладатель : miha2154
Видео
Идентификатор : 0
Формат : MPEG-4 Visual
Профиль формата : Advanced Simple@L5
Параметр BVOP формата : 2
Параметр QPel формата : Нет
Параметр GMC формата : Без точки перехода
Параметр матрицы формата : Default (MPEG)
Идентификатор кодека : XVID
Идентификатор кодека/Подсказка : XviD
Продолжительность : 1 ч. 58 м.
Битрейт : 1555 Кбит/сек
Ширина : 720 пикселей
Высота : 400 пикселей
Соотношение сторон : 16:9
Частота кадров : 25,000 кадров/сек
Цветовое пространство : YUV
Субдискретизация насыщенности : 4:2:0
Битовая глубина : 8 бит
Тип развёртки : Прогрессивная
Метод сжатия : С потерями
Бит/(Пиксели*Кадры) : 0.216
Размер потока : 1,29 Гбайт (89%)
Библиотека кодирования : XviD 1.1.0 (UTC 2005-11-22)
Аудио
Идентификатор : 1
Формат : AC-3
Формат/Информация : Audio Coding 3
Расширение режима : CM (complete main)
Параметр Endianness формата : Big
Идентификатор кодека : 2000
Продолжительность : 1 ч. 58 м.
Вид битрейта : Постоянный
Битрейт : 192 Кбит/сек
Каналы : 2 канала
Расположение каналов : Front: L R
Частота : 48,0 КГц
Битовая глубина : 16 бит
Метод сжатия : С потерями
Размер потока : 163 Мбайт (11%)
Выравнивание : Разделение по промежуткам
Продолжительность промежутка : 40 мс. (1,00 видеокадр)
Время предзагрузки промежутка : 500 мс.
Заголовок : Профессиональный (полное дублирование)
pb.wtf



Скачать Военный ныряльщик через торрент http://i63.fastpic.ru/big/2014/0605/a4/f76533de17906506f531eec1d830cca4.jpg Скачать фильм Военный ныряльщик через торрент бесплантно в хорошем качестве Описание: Фильм основан на реальных событиях из жизни легендарного водолаза Карла Брашира. Его наставник и старший офицер Билл Сандэй ... 10 10 13
Info! Золотая раздача, скачанное не засчитывается.
Торрент: Зарегистрирован [2014-06-06 07:00] · скачан: 483 раз
Статус: √ проверено
Размер: 1.45 GB
Как cкачать? Как скачать Военный ныряльщик через торрент | qTorrent

% Раздел Тема Автор DL S | L
Фильмы до 2000 г. [ 1.46 GB ] Военный ныряльщик / Men of Honor [2000 биография HDRip] Safokol Скачать
1 | 0
Фильмы до 2000 г. [ 784 MB ] Военный ныряльщик / Men of Honor [2000 биография HDRip ] PsYcho Скачать
1 | 0
Фильмы до 2000 г. [ 2.18 GB ] Военный ныряльщик / Men of Honor [2000 биография BDRip] chaga2009 Скачать
1 | 0


>> Регистрируемся здесь <<






Отзывы и комментарии о схеме читаем и пишем здесь: ---> Отзывы и комментарии о схеме

Новые благодарочки в телеграм довольных пользователей:
скриншот   скриншот   скриншот   скриншот   скриншот

06-06-2014 08:01 Военный ныряльщик Скачать торрент  

А почему "военный", men же - это множественное число, перевели бы уж как "военные нырялы". Ох уж наши прокатчики pb.wtf



06-06-2014 08:13 Военный ныряльщик Скачать торрент  

Spider писал(а):

А почему "военный", men же - это множественное число, перевели бы уж как "военные нырялы". Ох уж наши прокатчики

sarcastic это еще далеко не самый смешной перевод названия фильма нашими прокатчиками sarcasticpb.wtf



06-06-2014 09:22 Военный ныряльщик Скачать торрент  

ну если что то перевод названия - человек чести.pb.wtf



06-06-2014 10:52 Военный ныряльщик Скачать торрент  

Цитата:

Сравнение скриншотов BD и HDTV

сравнение конечно pb.wtf



06-06-2014 13:33 Военный ныряльщик Скачать торрент  

Messa-fan писал(а):

Цитата:

Сравнение скриншотов BD и HDTV

сравнение конечно

Цитата:

скрины приведены к одинаковому разрешению для сравнения

pb.wtf



08-06-2014 07:38 Военный ныряльщик Скачать торрент  

Отличный фильм!pb.wtf



    Дорогой пользователь! Огромная просьба, поблагодарите релизера, оцените раздачу и оставьте свои комментарий, если Вы скачали Военный ныряльщик через торрент бесплатно! Внесите свою лепту в развитие PiratBit!
    Комментировать посты могут только пользователи прошедшие не сложную регистрацию
    Показать сообщения:    

    Военный ныряльщик через торрент
    Скачать бесплатно Военный ныряльщик
    Военный ныряльщик скачать торрент
    Военный ныряльщик смотреть онлайн
    Cкачать фильм Военный ныряльщик бесплатно
    Военный ныряльщик скачать торрент в хорошем качестве
    Военный ныряльщик смотреть онлайн бесплатно в хорошем качестве


    Вы не можете начинать темы
    Вы не можете отвечать на сообщения
    Вы не можете редактировать свои сообщения
    Вы не можете удалять свои сообщения
    Вы не можете голосовать в опросах
    Вы не можете прикреплять файлы к сообщениям
    Вы можете скачивать файлы