Ссылка на приватное зеркало всего за 1$. Внимание количество ограничено!!!

iTunes

1+1

iTunes

мы

WEB-DL

1

iTunes

Чернобыль

iTunes

Ральф против интернета

Лицензия

ПШазам

Лицензия

Оно 2

Лицензия

30
pack

Вам бонус

ВАЖНО

!!Акция!!

Alien_RageХит недели

RePack

Resident Evil 21

ИГРА 18+

pack

RePack

jed

!!Акция!!

Alien_Rage

RePack

fifa19

RePack

Assassins Creed: Odyssey

RePack

NEED FOR SPEED™ PAYBACK

3 сезон

9 сезон

Бесстыжие 9 сезон

Все сериалы

все сериалы на PB.wtf

RePack

FAR CRY 5
Ребята, катастрофически не хватает 1900р. для оплаты серверов за Октябрь (всвязи с блокировками трафик упал в 3 раза), 1-2р., выручайте.
  

Неотразимая Тамара / Tamara Drewe (Стивен Фрирз / Stephen Frears) [2010, мелодрама, комедия, HDTVRip] [MVO] (1 канал) pb.wtf

Неотразимая Тамара через торрент pb.wtf

Размер: 1.45 GB | Добавлен: 5 лет 6 мес. назад | Торрент скачан:54 раза
Скачать  

06-06-2014 10:28 Неотразимая Тамара Скачать торрент  

Неотразимая Тамара / Tamara Drewe
Год выпуска: 2010
Страна: Великобритания
Жанр: мелодрама, комедия
Продолжительность: 01:42:44
Перевод: Профессиональный (многоголосый закадровый)[1 канал]
Cубтитры: нет
Оригинальная аудиодорожка: нет

Режиссер: Стивен Фрирз / Stephen Frears

В ролях: Джемма Артертон, Роджер Аллам, Билл Кэмп, Доминик Купер, Люк Эван, Тэмсин Грег, Джессика Барден, Шарлотта Кристи, Джеймс Ноти, Джон Бетт, Жозефин Тэйлор

Описание: Девица Тамара приезжает в свой родной дом, что находится в английской деревушке. Оказывается, что раньше она была страшненькой и носатой, но после пластической операции превратилась в секс-бомбу. В деревне живут в основном писатели, некоторые из них с трудом сохраняют верность, а некоторые вообще кукуют в полном одиночестве. Тамара была бы и рада вернуться к своему подростковому увлечению, красавчику Энди, но случай сводит ее с ударником популярной группы, после чего события развиваются самым неожиданным образом.



Качество: HDTVRip
Формат: AVI
Видео кодек: XviD
Аудио кодек: AC-3
Видео: MPEG4, XviD, 720x400 (16/9), 25.000 fps, 1 822 Kbps (0.253 bit/pixel)
Аудио: AC-3, 48.0 KHz, 2 ch, 192 Kbps, CBR
Рип с канала Первый HD. Из видеоряда удален логотип канала, остались периодические вставки с названием фильма. HDTV имеет иное наполнение кадра, чем BD http://screenshotcomparison.com/comparison/76970 и картинка лучше, чем у DVD http://screenshotcomparison.com/comparison/76968
Автор рипа miha2154
Общее
Полное имя : K:\Неотразимая Тамара.avi
Формат : AVI
Формат/Информация : Audio Video Interleave
Размер файла : 1,45 Гбайт
Продолжительность : 1 ч. 42 м.
Общий поток : 2024 Кбит/сек
Название фильма : Неотразимая Тамара / Tamara Drewe (2010)
Программа кодирования : VirtualDubMod 1.5.10.2 (build 2540/release)
Библиотека кодирования : VirtualDubMod build 2540/release
Правообладатель : miha2154
Видео
Идентификатор : 0
Формат : MPEG-4 Visual
Профиль формата : Advanced Simple@L5
Параметр BVOP формата : 2
Параметр QPel формата : Нет
Параметр GMC формата : Без точки перехода
Параметр матрицы формата : Default (MPEG)
Идентификатор кодека : XVID
Идентификатор кодека/Подсказка : XviD
Продолжительность : 1 ч. 42 м.
Битрейт : 1822 Кбит/сек
Ширина : 720 пикселей
Высота : 400 пикселей
Соотношение сторон : 16:9
Частота кадров : 25,000 кадров/сек
Цветовое пространство : YUV
Субдискретизация насыщенности : 4:2:0
Битовая глубина : 8 бит
Тип развёртки : Прогрессивная
Метод сжатия : С потерями
Бит/(Пиксели*Кадры) : 0.253
Размер потока : 1,31 Гбайт (90%)
Библиотека кодирования : XviD 1.1.0 (UTC 2005-11-22)
Аудио
Идентификатор : 1
Формат : AC-3
Формат/Информация : Audio Coding 3
Расширение режима : CM (complete main)
Параметр Endianness формата : Big
Идентификатор кодека : 2000
Продолжительность : 1 ч. 42 м.
Вид битрейта : Постоянный
Битрейт : 192 Кбит/сек
Каналы : 2 канала
Расположение каналов : Front: L R
Частота : 48,0 КГц
Битовая глубина : 16 бит
Метод сжатия : С потерями
Размер потока : 141 Мбайт (9%)
Выравнивание : Разделение по промежуткам
Продолжительность промежутка : 40 мс. (1,00 видеокадр)
Время предзагрузки промежутка : 500 мс.
Заголовок : Профессиональный (многоголосый закадровый) 1 канал
pb.wtf



Скачать Неотразимая Тамара через торрент http://i62.fastpic.ru/big/2014/0606/1e/784fbf5eb991ce77577b409aa7b20f1e.jpg Скачать фильм Неотразимая Тамара через торрент бесплантно в хорошем качестве Описание: Девица Тамара приезжает в свой родной дом, что находится в английской деревушке. Оказывается, что раньше она была страшненькой и ... 8.8 10 4
Торрент: Зарегистрирован [2014-06-06 10:28] · скачан: 54 раз
Статус: √ проверено
Размер: 1.45 GB
Как cкачать? Как скачать Неотразимая Тамара через торрент | qTorrent

% Раздел Тема Автор DL S | L
Арт-хаус и авторское кино [ 1.37 GB ] Неотразимая Тамара / Tamara Drewe [2010 HDRip лицензия] Lil Badun Скачать
2 | 0

28-11-2019 20:33  

Отключить всю рекламу на сайте

    Дорогой пользователь! Огромная просьба, поблагодарите релизера, оцените раздачу и оставьте свои комментарий, если Вы скачали Неотразимая Тамара через торрент бесплатно! Внесите свою лепту в развитие PiratBit!
    Комментировать посты могут только пользователи прошедшие не сложную регистрацию
    Показать сообщения:    

    Неотразимая Тамара через торрент
    Скачать бесплатно Неотразимая Тамара
    Неотразимая Тамара скачать торрент
    Неотразимая Тамара смотреть онлайн
    Cкачать фильм Неотразимая Тамара бесплатно
    Неотразимая Тамара скачать торрент в хорошем качестве
    Неотразимая Тамара смотреть онлайн бесплатно в хорошем качестве


    Вы не можете начинать темы
    Вы не можете отвечать на сообщения
    Вы не можете редактировать свои сообщения
    Вы не можете удалять свои сообщения
    Вы не можете голосовать в опросах
    Вы не можете прикреплять файлы к сообщениям
    Вы можете скачивать файлы