Ссылка на приватное зеркало нашего сайта всего за 1$. Внимание количество ограничено!!!

2 сезон

iTunes

1 сезон

1

iTunes

iTunes

iTunes

1 сезон

RePack

30

ИГРА 18+

pack

ВАЖНО

!!Акция!!

Alien_RageХит недели

RePack

MK11
pack

Забери бонус

RePack

jed

!!Акция!!

Alien_Rage

RePack

fifa19

RePack

Assassins Creed: Odyssey

RePack

NEED FOR SPEED™ PAYBACK

4 сезон

9 сезон

Бесстыжие 9 сезон

Все сериалы

все сериалы на PB.wtf

RePack

FAR CRY 5
  

Джо / Joe (Дэвид Гордон Грин) [2013 г., Криминал, драма, BDRip 1080p, Профессиональный многоголосый] pb.wtf

Джо через торрент pb.wtf

Размер: 9.11 GB | Добавлен: 6 лет 4 мес. назад | Торрент скачан:251 раз
Скачать  

06-06-2014 12:12 Джо Скачать торрент  

Джо / Joe
Год выпуска: 2013
Страна: США
Жанр: Криминал, драма
Продолжительность: 01:57:45
Перевод: Профессиональный многоголосый+Оригинал
Субтитры: Русские, английские

Режиссер: Дэвид Гордон Грин

В ролях: Николас Кейдж, Тай Шеридан, Гари Поултер, Ронни Джин Блевинс, Адриэн Мишлер, Брайан Мейс, Адж Уилсон МакФол, Сью Рок, Хезер Кафка, Бренда Исаак Бут

Описание: В сонном городке на Миссисипи встретилось два одиноких человека. Юный Гарри поставил крест на своем будущем, не зная как отвязаться от отца-алкоголика, бывший бандит Джо не желает вспоминать о прошлом. Неожиданно для самих себя они становятся друзьями.

Качество: BDRip 1080p
Формат: MKV
Видео кодек: H.264
Аудио кодек: AC3-DTS
Видео: MPEG-4 AVC, (1920x816),9124 Кбит/с, 23.976 кадра/сек
Аудио#1: AC-3 6 ch,448 kbps (Rus) 48.0 KHz профессиональный многоголосый
Аудио#2: DTS-6 ch, 1509 kbps (Eng) 48.0 KHz Оригинал
скриншот   скриншот   скриншот  

Тип потока: Видео
Длительность: 01:57:44
Кодек: AVC
Кодек/описание: Advanced Video Codec
Кодек/профиль: High@L4.1
Кодек/ID: V_MPEG4/ISO/AVC
Кодек/CABAC: Yes
Кодек/ReFrames: 5 frames
Размеры изображения: 1920 x 816 (2.35:1)
Частота кадров: 23.976 fps
Частота кадров/тип: Constant
Размер потока: 7.32 GiB (80%)
Битрейт: 9 124 Kbps
Библиотека кодирования: x264 core 142 r2431 ac76440
Цветовое пространство: YUV
Тип развёртки: Progressive
Колориметрия: 4:2:0
Глубина: 8 bits
Настройки кодирования: cabac=1 / ref=5 / deblock=1:0:0 / analyse=0x3:0x133 / me=umh / subme=7 / psy=1 / psy_rd=1.00:0.00 / mixed_ref=1 / me_range=16 / chroma_me=1 / trellis=1 / 8x8dct=1 / cqm=0 / deadzone=21,11 / fast_pskip=1 / chroma_qp_offset=-2 / threads=8 / lookahead_threads=1 / sliced_threads=0 / nr=0 / decimate=1 / interlaced=0 / bluray_compat=0 / constrained_intra=0 / bframes=3 / b_pyramid=2 / b_adapt=2 / b_bias=0 / direct=3 / weightb=1 / open_gop=0 / weightp=2 / keyint=250 / keyint_min=23 / scenecut=40 / intra_refresh=0 / rc_lookahead=50 / rc=2pass / mbtree=1 / bitrate=9124 / ratetol=1.0 / qcomp=0.60 / qpmin=0 / qpmax=69 / qpstep=4 / cplxblur=20.0 / qblur=0.5 / ip_ratio=1.40 / aq=1:1.00
:
Тип потока: Звук #1
Язык: Russian
Длительность: 01:57:44.522
Кодек: AC-3
Кодек/описание: Audio Coding 3
Кодек/ID: A_AC3
Частота дискретизации: 48.0 KHz
Каналов: 6 channels
Битрейт: 448 Kbps
Битрейт/тип: Constant
Размер потока: 377 MiB (4%)
Глубина: 16 bits
Метод сжатия: Lossy
:
Тип потока: Звук #2
Язык: English
Длительность: 01:57:44.522
Кодек: DTS
Кодек/описание: Digital Theater Systems
Кодек/ID: A_DTS
Частота дискретизации: 48.0 KHz
Каналов: 6 channels
Битрейт: 1 509 Kbps
Битрейт/тип: Constant
Размер потока: 1.24 GiB (14%)
Глубина: 24 bits
Метод сжатия: Lossy
:
Тип потока: Субтитры #1
Язык: Russian
Формат: UTF-8
Формат/подробно: UTF-8 Plain Text
Название: R5
:
Тип потока: Субтитры #2
Язык: English
Формат: UTF-8
Формат/подробно: UTF-8 Plain Text
Название: English
:
Тип потока: Субтитры #3
Язык: English
Формат: UTF-8
Формат/подробно: UTF-8 Plain Text
Название: English
:
Тип потока: Субтитры #4
Язык: English
Формат: UTF-8
Формат/подробно: UTF-8 Plain Text
Название: English SDH

pb.wtf



Скачать Джо через торрент http://pic.kartinco.top/images/6/8z45p.jpg Скачать фильм Джо через торрент бесплантно в хорошем качестве Описание: В сонном городке на Миссисипи встретилось два одиноких человека. Юный Гарри поставил крест на своем будущем, не зная как ... 9.5 10 8
Info! Серебряная раздача, засчитывается только 50% скачанного.
Торрент: Зарегистрирован [2014-06-06 12:12] · скачан: 251 раз
Статус: √ проверено
Размер: 9.11 GB
Как cкачать? Как скачать Джо через торрент | qTorrent

% Раздел Тема Автор DL S | L
Фильмы [HD 720p, 1080p] (Хороший звук DUB, MVO) [ 8.03 GB ] Что скрывает ложь / Trespass [2011 BDRip ] ACFIORENTINA Скачать
1 | 0
T Фильмы [HD 720p, 1080p] (Хороший звук DUB, MVO) [ 4.75 GB ] G.I. Joe: Бросок кобры 2 / G.I. Joe: Retaliation [EXTENDED] [2013 BDRip 720p [ Чистый звук] Ворон Скачать
1 | 0
Фильмы 2006-2008 [ 2.18 GB ] Козырные тузы / Smokin' Aces /Джо Карнахан / Joe Carnahan) [2006 BDRip DUB + Оригинал] Aironhald Скачать
1 | 0
3D Фильмы [ 6.88 GB ] G.I. Joe: Бросок кобры 2 в 3D / G.I. Joe: Retaliation in 3D [2013 BDRip 1080p + Оригинал] Анаглиф slaventi-69 Скачать
1 | 0
T Фильмы 2011 [ 1.48 GB ] Лето резни / The Summer of Massacre [2011 BDRip] VO + Original Eng Ворон Скачать
1 | 0
Фильмы [HD 720p, 1080p] (Хороший звук DUB, MVO) [ 17.28 GB ] Первый мститель / Captain America: The First Avenger [2011 BDRip 1080p DUB + Оригинал+укр дубляж+Sub engrusukr Trava-HD Скачать
1 | 0
Фильмы 2013 [DVDrip, WEB-DLRip, HDrip] [ 1.46 GB ] G.I. Joe: Бросок кобры 2 / G.I. Joe: Retaliation [2013 HDRip ] Seedtank Скачать
1 | 0

28-11-2019 20:33  

Отключить всю рекламу на сайте

06-06-2014 14:34 Джо Скачать торрент  

Как фильм?pb.wtf



07-06-2014 10:59 Джо Скачать торрент  

Nibler99 писал(а):

Как фильм?

фильм нормальныйpb.wtf



08-06-2014 18:52 Джо Скачать торрент  

Цитата:

фильм нормальный

исчерпывающий комментарий))pb.wtf



    Дорогой пользователь! Огромная просьба, поблагодарите релизера, оцените раздачу и оставьте свои комментарий, если Вы скачали Джо через торрент бесплатно! Внесите свою лепту в развитие PiratBit!
    Комментировать посты могут только пользователи прошедшие не сложную регистрацию
    Показать сообщения:    

    Джо через торрент
    Скачать бесплатно Джо
    Джо скачать торрент
    Джо смотреть онлайн
    Cкачать фильм Джо бесплатно
    Джо скачать торрент в хорошем качестве
    Джо смотреть онлайн бесплатно в хорошем качестве


    Вы не можете начинать темы
    Вы не можете отвечать на сообщения
    Вы не можете редактировать свои сообщения
    Вы не можете удалять свои сообщения
    Вы не можете голосовать в опросах
    Вы не можете прикреплять файлы к сообщениям
    Вы можете скачивать файлы