1 сезон

1 сезон

iTunes

1

КиноПоиск HD

Кинопоиск HD

iTunes

13

1 сезон

RePack

30

Новинка

ВАЖНО

ИГРА 18+

pack

RePack

MK11
pack

Легкие деньги

RePack

jed

RePack

fifa19

RePack

RDR2

RePack

NEED FOR SPEED™ PAYBACK

4 сезон

9 сезон

Бесстыжие 9 сезон

Все сериалы

все сериалы на PB.wtf

RePack

FAR CRY 5
  
Magnet ссылка

Северная страна / North Country (Ники Каро / Niki Caro) [2005, США, драма, HDTVRip,Профессиональный (многоголосый, закадровый) pb.wtf

Северная страна через торрент pb.wtf

Размер: 2.18 GB | Добавлен: 6 лет 10 мес. назад | Торрент скачан:131 раз
Скачать  

06-06-2014 17:09 Северная страна Скачать торрент  

Северная страна / North Country
Год выпуска: 2005
Страна: США
Жанр: драма
Продолжительность: 02:01:06
Перевод: Профессиональный (многоголосый, закадровый) + оригинал
Субтитры: русскиe и английские

Режиссер: Ники Каро / Niki Caro
В ролях: Шарлиз Терон (Josey Aimes), Томас Кертис (Sammy Aimes), Эль Петерсон (Karen Aimes), Фрэнсис МакДорманд (Glory), Шон Бин (Kyle), Вуди Харрельсон (Bill White), Джереми Реннер (Bobby Sharp), Ричард Дженкинс (Hank Aimes), Сисси Спейсек (Alice Aimes), Джеймс Кэда (Don Pearson), Расти Швиммер (Big Betty), Линда Эмонд (Leslie Conlin)

Описание: После того, как распался ее брак, Джози Эймс в поисках работы возвращается в свой родной город в Северной Миннесоте. У нее двое детей, и чтобы обеспечить их, она вынуждена устроиться на шахту, где трудятся практически все местные мужчины, в том числе и ее отец.
Оказавшись одной из немногих женщин, работающих на шахте, Джози сталкивается с суровой реальностью. Мужчины, не терпящие конкуренции со стороны представительниц слабого пола, выдвигают им свои унизительные требования. И тогда Джози, пойдя на большой риск, решает обратиться в суд, чтобы защитить себя и своих подруг. В итоге это дело становится первым прецедентом в США, когда был удовлетворен иск о сексуальном домогательстве...

kinopoisk.ru: 7.664 (4160)
imdb.com: 7.20 (27 935)
MPAA: R - Лицам до 17 лет обязательно присутствие взрослого

Качество: HDTVRip
Формат: AVI
Видео кодек: XviD
Аудио кодек: AC3
Видео: XviD, 720x304 (2.35:1), 1791 kbps, 25 fps, 0,327 bpp
Аудио Ru: AC3 / 5.1 / 48 kHz / 384 kbps / 16 bit
Аудио En: AC3 / 5.1 / 48 kHz / 384 kbps / 16 bit

Релиз от: tide

General
Complete name : C:\закачки\North.Country\North.Country.avi
Format : AVI
Format/Info : Audio Video Interleave
Format profile : OpenDML
File size : 2.18 GiB
Duration : 2h 1mn
Overall bit rate : 2 578 Kbps
Director : tide
Writing application : VirtualDubMod 1.5.10.2 (build 2540/release)
Copyright : rutracker.org
Comment : all films

Video
ID : 0
Format : MPEG-4 Visual
Format profile : Advanced Simple@L5
Format settings, BVOP : 1
Format settings, QPel : No
Format settings, GMC : No warppoints
Format settings, Matrix : Custom
Codec ID : XVID
Codec ID/Hint : XviD
Duration : 2h 1mn
Bit rate : 1 792 Kbps
Width : 720 pixels
Height : 304 pixels
Display aspect ratio : 2.35:1
Frame rate : 25.000 fps
Color space : YUV
Chroma subsampling : 4:2:0
Bit depth : 8 bits
Scan type : Progressive
Compression mode : Lossy
Bits/(Pixel*Frame) : 0.327
Stream size : 1.52 GiB (70%)
Writing library : XviD 1.2.1 (UTC 2008-12-04)

Audio #1
ID : 1
Format : AC-3
Format/Info : Audio Coding 3
Mode extension : CM (complete main)
Codec ID : 2000
Duration : 2h 1mn
Bit rate mode : Constant
Bit rate : 384 Kbps
Channel(s) : 6 channels
Channel positions : Front: L C R, Side: L R, LFE
Sampling rate : 48.0 KHz
Bit depth : 16 bits
Compression mode : Lossy
Stream size : 332 MiB (15%)
Alignment : Split accross interleaves
Interleave, duration : 40 ms (1.00 video frame)
Interleave, preload duration : 500 ms

Audio #2
ID : 2
Format : AC-3
Format/Info : Audio Coding 3
Mode extension : CM (complete main)
Codec ID : 2000
Duration : 2h 1mn
Bit rate mode : Constant
Bit rate : 384 Kbps
Channel(s) : 6 channels
Channel positions : Front: L C R, Side: L R, LFE
Sampling rate : 48.0 KHz
Bit depth : 16 bits
Compression mode : Lossy
Stream size : 333 MiB (15%)
Alignment : Split accross interleaves
Interleave, duration : 40 ms (1.00 video frame)
Interleave, preload duration : 500 ms
pb.wtf



Скачать Северная страна через торрент http://s60.radikal.ru/i168/1009/dd/0f577bdb88e2.jpg Скачать фильм Северная страна через торрент бесплантно в хорошем качестве Описание: После того, как распался ее брак, Джози Эймс в поисках работы возвращается в свой родной город в Северной Миннесоте. У нее двое ... 10 10 1
Торрент: Зарегистрирован [2014-06-06 17:09] · скачан: 131 раз
Статус: √ проверено
Размер: 2.18 GB
Как cкачать? Как скачать Северная страна через торрент | UTorrent

% Раздел Тема Автор DL S | L
Фильмы (WEB-DL 720p, 1080p) [ 4.7 GB ] Северная страна / North Country ) [2005 HDTV] Flint3 Скачать
1 | 0

28-11-2019 20:33  

Отключить всю рекламу на сайте


    Дорогой пользователь! Огромная просьба, поблагодарите релизера, оцените раздачу и оставьте свои комментарий, если Вы скачали Северная страна через торрент бесплатно! Внесите свою лепту в развитие PiratBit!
    Комментировать посты могут только пользователи прошедшие не сложную регистрацию
    Показать сообщения:    

    Северная страна через торрент
    Скачать бесплатно Северная страна
    Северная страна скачать торрент
    Северная страна смотреть онлайн
    Cкачать фильм Северная страна бесплатно
    Северная страна скачать торрент в хорошем качестве
    Северная страна смотреть онлайн бесплатно в хорошем качестве


    Вы не можете начинать темы
    Вы не можете отвечать на сообщения
    Вы не можете редактировать свои сообщения
    Вы не можете удалять свои сообщения
    Вы не можете голосовать в опросах
    Вы не можете прикреплять файлы к сообщениям
    Вы можете скачивать файлы