2 сезон

iTunes

1 сезон

1

iTunes

iTunes

iTunes

1 сезон

RePack

30

ИГРА 18+

pack

ВАЖНО

!!Акция!!

Alien_RageХит недели

RePack

MK11
pack

Забери бонус

RePack

jed

!!Акция!!

Alien_Rage

RePack

fifa19

RePack

Assassins Creed: Odyssey

RePack

NEED FOR SPEED™ PAYBACK

4 сезон

9 сезон

Бесстыжие 9 сезон

Все сериалы

все сериалы на PB.wtf

RePack

FAR CRY 5
  

Моя вина / Mea culpa (Фред Кавайе) [2014 г., боевик, триллер, HDRip, Любительский одноголосый] pb.wtf

Моя вина через торрент pb.wtf

Размер: 2.17 GB | Добавлен: 6 лет 4 мес. назад | Торрент скачан:136 раз
Скачать  

06-06-2014 17:52 Моя вина Скачать торрент  

Моя вина / Mea culpa
Год выпуска: 2014
Страна: Франция / Studios de Paris, La Cité du Cinéma, Saint-Denis, Seine-Saint-Denis, France
Жанр: боевик, триллер
Продолжительность: 01:30:20.
Перевод: Любительский одноголосый (ХихиДок)

Режиссер: Фред Кавайе

В ролях: Венсан Линдон,Жиль Леллуш,Надин Лабаки,Жиль Коэн,Макс Биссетт де Малглайв,Меди Садун,Велибор Топик,Сириль Леконт,Жиль Белломи,Саша Петронижевич

Описание: Франк и Симон напарники полицейские из Тулона. После трагической аварии Симон теряет всё: свою семейную жизнь, свою работу полицейского. Франк выходит сухим из воды.

Шесть лет спустя под угрозой оказывается ставший случайным свидетелем преступления сын Симона Тео. Бывший полицейский готов на всё, чтобы защитить свою семью. Но для этого ему ему предстоит объединиться со своим бывшим напарником Франком.

Качество: HDRip
Формат: AVI
Видео кодек: XviD
Аудио кодек: AC3
Видео: 720x304 (2.37:1), 24.000 fps, XviD build 50 ~3247 kbps avg, 0.62 bit/pixel
Аудио: 44.1 kHz, AC3 Dolby Digital, 2/0 (L,R) ch, ~192 kbps


Общее
Полное имя : H:\кино\Mea.Culpa.2014.HDRip.avi
Формат : AVI
Формат/Информация : Audio Video Interleave
Профиль формата : OpenDML
Размер файла : 2,17 Гбайт
Продолжительность : 1 ч. 30 м.
Общий поток : 3442 Кбит/сек
Программа кодирования : VirtualDubMod 1.5.10.3 | www.virtualdub-fr.org || (build 2550/release)
Библиотека кодирования : VirtualDubMod build 2550/release

Видео
Идентификатор : 0
Формат : MPEG-4 Visual
Профиль формата : Advanced Simple@L5
Параметр BVOP формата : 2
Параметр QPel формата : Нет
Параметр GMC формата : Без точки переходаlength: 01:30:20.045
Параметр матрицы формата : Default (H.263)
Идентификатор кодека : XVID
Идентификатор кодека/Подсказка : XviD
Продолжительность : 1 ч. 30 м.
Битрейт : 3242 Кбит/сек
Ширина : 720 пикселей
Высота : 304 пикселя
Соотношение сторон : 2,35:1
Частота кадров : 24,000 кадра/сек
Цветовое пространство : YUV
Субдискретизация насыщенности : 4:2:0
Битовая глубина : 8 бит
Тип развёртки : Прогрессивная
Метод сжатия : С потерями
Бит/(Пиксели*Кадры) : 0.617
Размер потока : 2,05 Гбайт (94%)
Библиотека кодирования : XviD 1.2.1 (UTC 2008-12-04)

Аудио
Идентификатор : 1
Формат : AC-3
Формат/Информация : Audio Coding 3
Расширение режима : CM (complete main)
Параметр Endianness формата : Big
Идентификатор кодека : 2000
Продолжительность : 1 ч. 28 м.
Вид битрейта : Постоянный
Битрейт : 192 Кбит/сек
Каналы : 2 канала
Расположение каналов : Front: L R
Частота : 44,1 КГц
Битовая глубина : 16 бит
Метод сжатия : С потерями
Размер потока : 122 Мбайт (5%)
Выравнивание : Разделение по промежуткам
Продолжительность промежутка : 43 мс. (1,02 видеокадр)
Время предзагрузки промежутка : 500 мс.

pb.wtf



Скачать Моя вина через торрент http://pic.kartinco.top/images/6/ux5dh.jpg Скачать фильм Моя вина через торрент бесплантно в хорошем качестве Описание: Франк и Симон напарники полицейские из Тулона. После трагической аварии Симон теряет всё: свою семейную жизнь, свою работу ... 10 10 9
Info! Золотая раздача, скачанное не засчитывается.
Торрент: Зарегистрирован [2014-06-06 17:52] · скачан: 136 раз
Статус: T временная
Размер: 2.17 GB
Как cкачать? Как скачать Моя вина через торрент | qTorrent

% Раздел Тема Автор DL S | L
Фильмы 2014 [DVDrip, WEB-DLRip, HDrip] [ 1.37 GB ] Моя вина / Mea culpa [2014 HDRip MVO] [] GEKADOL Скачать
1 | 0
Фильмы [HD 720p, 1080p] (Хороший звук DUB, MVO) [ 6.84 GB ] Моя вина / Mea culpa [2014 BDRip 1080p многоголосый [] Ворон Скачать
1 | 0
Фильмы [HD 720p, 1080p] (Хороший звук DUB, MVO) [ 4.65 GB ] Моя вина / Mea culpa [2014 BDRip 720p многоголосый [] Ворон Скачать
1 | 0

28-11-2019 20:33  

Отключить всю рекламу на сайте

08-06-2014 08:19 Моя вина Скачать торрент  

Зачем спрашивается выкладывать такой бред, в котором звук минут на 5 отстает.pb.wtf



    Дорогой пользователь! Огромная просьба, поблагодарите релизера, оцените раздачу и оставьте свои комментарий, если Вы скачали Моя вина через торрент бесплатно! Внесите свою лепту в развитие PiratBit!
    Комментировать посты могут только пользователи прошедшие не сложную регистрацию
    Показать сообщения:    

    Моя вина через торрент
    Скачать бесплатно Моя вина
    Моя вина скачать торрент
    Моя вина смотреть онлайн
    Cкачать фильм Моя вина бесплатно
    Моя вина скачать торрент в хорошем качестве
    Моя вина смотреть онлайн бесплатно в хорошем качестве


    Вы не можете начинать темы
    Вы не можете отвечать на сообщения
    Вы не можете редактировать свои сообщения
    Вы не можете удалять свои сообщения
    Вы не можете голосовать в опросах
    Вы не можете прикреплять файлы к сообщениям
    Вы можете скачивать файлы