1 сезон

1 сезон

iTunes

1

КиноПоиск HD

Кинопоиск HD

iTunes

13

1 сезон

RePack

30

Новинка

ВАЖНО

ИГРА 18+

pack

RePack

MK11
pack

Легкие деньги

RePack

jed

RePack

fifa19

RePack

RDR2

RePack

NEED FOR SPEED™ PAYBACK

4 сезон

9 сезон

Бесстыжие 9 сезон

Все сериалы

все сериалы на PB.wtf

RePack

FAR CRY 5
  
Magnet ссылка

Терпеливая любовь / Enduring Love (Роджер Мишелл / Roger Michell) [2004, Великобритания, триллер, драма, мелодрама, DVDRip-AVC,Профессиональный (многоголосый, закадровый) pb.wtf

Терпеливая любовь через торрент pb.wtf

Размер: 1.4 GB | Добавлен: 6 лет 10 мес. назад | Торрент скачан:63 раза
Скачать  

07-06-2014 12:55 Терпеливая любовь Скачать торрент  

Терпеливая любовь / Enduring Love
Год выпуска: 2004
Страна: Великобритания
Жанр: триллер, драма, мелодрама, детектив
Продолжительность: 01:40:42
Перевод: Профессиональный (многоголосый, закадровый) + оригинал
Субтитры: Английские VobSub

Режиссер: Роджер Мишелл / Roger Michell
В ролях: Дэниэл Крэйг (Joe), Саманта Мортон (Claire), Билл Уэстон (Grandfather), Джереми МакКюрди (Boy in Balloon), Ли Шьюэрд (John Logan), Ник Уилкинсон (Farmer), Рис Иванс (Jed), Билл Найи (Robin), Сьюзэн Линч (Rachel), Бен Уишоу (Spud), Джастин Салинджер (Frank), Эндрю Линкольн (TV Producer)

Описание: Джо - профессор в колледже, Клэр - скульптор. Они давние приятели, и на предстоящем пикнике Джо собирается сделать Клэр предложение. Романтическое настроение испорчено случившейся поблизости трагедией. Джо едва не спас человека, но рядом оказался некто Джед, также претендовавший на лавры спасителя. Теперь Джед уверен, что в их столкновении заключен важный смысл, некая взаимосвязь, которая делает их намного ближе обычного случайного знакомства. Джед нахально вмешивается в жизнь профессора, разрушая его отношения с подругой...

kinopoisk.ru: 6.736 (670)
imdb.com: 6.40 (7875)
MPAA: R - Лицам до 17 лет обязательно присутствие взрослого

Качество: DVDRip-AVC
Формат: MKV
Видео кодек: AVC
Аудио кодек: AC3
Видео: AVC, 688x352 (2.25:1), 1341 kbps, 23,976 fps, 0,231 bpp
Аудио русский: AC3 / 2.0 / 48 kHz / 192 kbps / 16 bit
Аудио английский: AC3 / 5.1 / 48 kHz / 448 kbps / 16 bit

General
Unique ID : 185041889594955896010824981678014785095 (0x8B35C5887995560CBB060572FD2EE647)
Complete name : C:\закачки\Terpelivaya_lubov.2004.DVDRip-AVC.mkv
Format : Matroska
Format version : Version 4 / Version 2
File size : 1.40 GiB
Duration : 1h 40mn
Overall bit rate : 1 984 Kbps
Encoded date : UTC 2014-06-07 11:45:55
Writing application : mkvmerge v6.9.1 ('Blue Panther') 64bit built on Apr 18 2014 18:23:38
Writing library : libebml v1.3.0 + libmatroska v1.4.1

Video
ID : 1
Format : AVC
Format/Info : Advanced Video Codec
Format profile : High@L4.1
Format settings, CABAC : Yes
Format settings, ReFrames : 16 frames
Codec ID : V_MPEG4/ISO/AVC
Duration : 1h 40mn
Bit rate : 1 341 Kbps
Width : 688 pixels
Height : 352 pixels
Display aspect ratio : 2.25:1
Original display aspect ratio : 2.25:1
Frame rate : 23.976 fps
Color space : YUV
Chroma subsampling : 4:2:0
Bit depth : 8 bits
Scan type : Progressive
Bits/(Pixel*Frame) : 0.231
Stream size : 940 MiB (66%)
Writing library : x264 core 138 r2358 9e941d1
Encoding settings : cabac=1 / ref=16 / deblock=1:0:0 / analyse=0x3:0x133 / me=umh / subme=10 / psy=1 / psy_rd=1.10:0.10 / mixed_ref=1 / me_range=32 / chroma_me=1 / trellis=2 / 8x8dct=1 / cqm=0 / deadzone=21,11 / fast_pskip=0 / chroma_qp_offset=-3 / threads=8 / lookahead_threads=2 / sliced_threads=0 / nr=0 / decimate=0 / interlaced=0 / bluray_compat=0 / constrained_intra=0 / bframes=14 / b_pyramid=2 / b_adapt=2 / b_bias=0 / direct=3 / weightb=1 / open_gop=0 / weightp=2 / keyint=240 / keyint_min=23 / scenecut=60 / intra_refresh=0 / rc_lookahead=60 / rc=2pass / mbtree=0 / bitrate=1341 / ratetol=1.0 / qcomp=0.60 / qpmin=0 / qpmax=69 / qpstep=4 / cplxblur=20.0 / qblur=0.5 / vbv_maxrate=50000 / vbv_bufsize=62500 / nal_hrd=none / ip_ratio=1.40 / pb_ratio=1.30 / aq=1:1.00
Default : No
Forced : No
Matrix coefficients : BT.601-6 525, BT.1358 525, BT.1700 NTSC, SMPTE 170M

Audio #1
ID : 2
Format : AC-3
Format/Info : Audio Coding 3
Mode extension : CM (complete main)
Codec ID : A_AC3
Duration : 1h 40mn
Bit rate mode : Constant
Bit rate : 192 Kbps
Channel(s) : 2 channels
Channel positions : Front: L R
Sampling rate : 48.0 KHz
Bit depth : 16 bits
Compression mode : Lossy
Stream size : 138 MiB (10%)
Language : Russian
Default : Yes
Forced : No

Audio #2
ID : 3
Format : AC-3
Format/Info : Audio Coding 3
Mode extension : CM (complete main)
Codec ID : A_AC3
Duration : 1h 40mn
Bit rate mode : Constant
Bit rate : 448 Kbps
Channel(s) : 6 channels
Channel positions : Front: L C R, Side: L R, LFE
Sampling rate : 48.0 KHz
Bit depth : 16 bits
Compression mode : Lossy
Stream size : 323 MiB (23%)
Language : English
Default : No
Forced : No

Text
ID : 4
Format : VobSub
Muxing mode : zlib
Codec ID : S_VOBSUB
Codec ID/Info : The same subtitle format used on DVDs
Language : English
Default : No
Forced : No

Menu
00:00:00.000 : en:Chapter 01
00:05:40.534 : en:Chapter 02
00:12:11.634 : en:Chapter 03
00:20:21.034 : en:Chapter 04
00:29:53.501 : en:Chapter 05
00:36:44.501 : en:Chapter 06
00:42:43.935 : en:Chapter 07
00:47:48.102 : en:Chapter 08
00:53:27.336 : en:Chapter 09
00:59:13.103 : en:Chapter 10
01:05:41.103 : en:Chapter 11
01:10:51.537 : en:Chapter 12
01:16:09.604 : en:Chapter 13
01:21:32.038 : en:Chapter 14
01:27:29.739 : en:Chapter 15
01:34:42.006 : en:Chapter 16
pb.wtf



Скачать Терпеливая любовь через торрент http://images.amazon.com/images/P/B0007R4TJ4.01._SCLZZZZZZZ_.jpg Скачать фильм Терпеливая любовь через торрент бесплантно в хорошем качестве Описание: Джо - профессор в колледже, Клэр - скульптор. Они давние приятели, и на предстоящем пикнике Джо собирается сделать Клэр ... 10 10 3
Торрент: Зарегистрирован [2014-06-07 12:55] · скачан: 63 раз
Статус: √ проверено
Размер: 1.4 GB
Как cкачать? Как скачать Терпеливая любовь через торрент | UTorrent

28-11-2019 20:33  

Отключить всю рекламу на сайте


    Дорогой пользователь! Огромная просьба, поблагодарите релизера, оцените раздачу и оставьте свои комментарий, если Вы скачали Терпеливая любовь через торрент бесплатно! Внесите свою лепту в развитие PiratBit!
    Комментировать посты могут только пользователи прошедшие не сложную регистрацию
    Показать сообщения:    

    Терпеливая любовь через торрент
    Скачать бесплатно Терпеливая любовь
    Терпеливая любовь скачать торрент
    Терпеливая любовь смотреть онлайн
    Cкачать фильм Терпеливая любовь бесплатно
    Терпеливая любовь скачать торрент в хорошем качестве
    Терпеливая любовь смотреть онлайн бесплатно в хорошем качестве


    Вы не можете начинать темы
    Вы не можете отвечать на сообщения
    Вы не можете редактировать свои сообщения
    Вы не можете удалять свои сообщения
    Вы не можете голосовать в опросах
    Вы не можете прикреплять файлы к сообщениям
    Вы можете скачивать файлы