2 сезон

iTunes

MVO

1

2 сезон

iTunes

iTunes

1 сезон

RePack

30

Новинка

ВАЖНО

ИГРА 18+

pack

RePack

MK11
pack

Легкие деньги

RePack

jed

RePack

fifa19

RePack

RDR2

RePack

NEED FOR SPEED™ PAYBACK

4 сезон

9 сезон

Бесстыжие 9 сезон

Все сериалы

все сериалы на PB.wtf

RePack

FAR CRY 5

Anonymous, доброй ночи, мы не успеваем собрать деньги на оплату серверов за декабрь и январь, помогите нам пожалуйста в это трудное время. В качестве благодарности мы отключим Вам всю рекламу на сайте (укажите свой ник в строку Ваше имя)!

×
  
Magnet ссылка

Телеведущий: И снова здравствуйте / Anchorman 2: The Legend Continues (Адам МакКей / Adam McKay) [2013 г., Комедия, BDRip-AVC] DUB Лицензия pb.wtf

Телеведущий: И снова здравствуйте через торрент pb.wtf

Размер: 2.18 GB | Добавлен: 6 лет 7 мес. назад | Торрент скачан:585 раз
Скачать  

07-06-2014 14:56 Телеведущий: И снова здравствуйте Скачать торрент  

Телеведущий: И снова здравствуйте / Anchorman 2: The Legend Continues
Год выпуска: 2013
Страна: США / Paramount Pictures, Apatow Productions, Gary Sanchez Productions
Жанр: Комедия
Продолжительность: 01:53:00
Перевод: Дубляж [BD CEE]
Субтитры: Русские (полные + форс.), украинские, английские (Full + Comments)

Режиссер: Адам МакКей / Adam McKay



В ролях: Уилл Феррелл, Кристина Эпплгейт, Пол Радд, Стив Карелл, Дэвид Кехнер, Винс Вон, Харрисон Форд, Лиам Нисон, Кристен Уиг

Описание: Популярнейший телеведущий Сан-Диего 70-х годов, Рон Бургунди, возвращается, чтобы стать лучшим на первом 24-часовом новостном канале Нью-Йорка…

Качество: BDRip-AVC
Формат: MKV
Видео кодек: H.264
Аудио кодек: AC3
Видео: 1032x430 (2,40:1), 23,976 fps, 1866 Кbps, 0.175 bit/pixel
Аудио#1: 48 kHz, AC3 Dolby Digital, 3/2 (L,C,R,l,r) + LFE ch, 448.00 kbps | RUS
Аудио#2: 48 kHz, AC3 Dolby Digital, 3/2 (L,C,R,l,r) + LFE ch, 448.00 kbps | ENG

Релиз группы:
Автор рипа: potroks

Общее
Уникальный идентификатор : 187221846697036335542909225648303714611 (0x8CD99DB766B38EA3A6A069E370E93133)
Полное имя : Televeduwhiy.i.Snova.Zdravstvuyte.2013.DUAL.BDRip.x264.-HELLYWOOD.mkv
Формат : Matroska
Версия формата : Version 4 / Version 2
Размер файла : 2,18 Гбайт
Продолжительность : 1 ч. 52 м.
Общий поток : 2765 Кбит/сек
Название фильма : HELLYWOOD - rip by potroks
Дата кодирования : UTC 2014-06-07 01:11:03
Программа кодирования : mkvmerge v5.9.0 ('On The Loose') built on Dec 15 2012 16:39:58
Библиотека кодирования : libebml v1.3.0 + libmatroska v1.4.0

Видео
Идентификатор : 1
Формат : AVC
Формат/Информация : Advanced Video Codec
Профиль формата : High@L4.1
Параметр CABAC формата : Да
Параметр ReFrames формата : 10 кадров
Идентификатор кодека : V_MPEG4/ISO/AVC
Продолжительность : 1 ч. 52 м.
Битрейт : 1866 Кбит/сек
Ширина : 1032 пикселя
Высота : 430 пикселей
Соотношение сторон : 2,40:1
Режим частоты кадров : Постоянный
Частота кадров : 23,976 кадра/сек
Цветовое пространство : YUV
Субдискретизация насыщенности : 4:2:0
Битовая глубина : 8 бит
Тип развёртки : Прогрессивная
Бит/(Пиксели*Кадры) : 0.175
Размер потока : 1,43 Гбайт (66%)
Заголовок : Anchorman 2: The Legend Continues
Библиотека кодирования : x264 core 130 r2273 b3065e6
Настройки программы : cabac=1 / ref=10 / deblock=1:-2:-2 / analyse=0x3:0x133 / me=umh / subme=11 / psy=1 / psy_rd=1.04:0.02 / mixed_ref=1 / me_range=48 / chroma_me=1 / trellis=2 / 8x8dct=1 / cqm=0 / deadzone=21,11 / fast_pskip=0 / chroma_qp_offset=-3 / threads=9 / lookahead_threads=6 / sliced_threads=0 / nr=0 / decimate=0 / interlaced=0 / bluray_compat=0 / constrained_intra=0 / bframes=11 / b_pyramid=2 / b_adapt=2 / b_bias=0 / direct=3 / weightb=1 / open_gop=0 / weightp=2 / keyint=250 / keyint_min=23 / scenecut=40 / intra_refresh=0 / rc_lookahead=60 / rc=2pass / mbtree=0 / bitrate=1866 / ratetol=1.0 / qcomp=0.70 / qpmin=0 / qpmax=69 / qpstep=4 / cplxblur=20.0 / qblur=0.5 / vbv_maxrate=20000 / vbv_bufsize=20000 / nal_hrd=none / ip_ratio=1.35 / pb_ratio=1.25 / aq=1:0.70
Язык : English
Default : Да
Forced : Нет

Аудио #1
Идентификатор : 2
Формат : AC-3
Формат/Информация : Audio Coding 3
Расширение режима : CM (complete main)
Параметр Endianness формата : Big
Идентификатор кодека : A_AC3
Продолжительность : 1 ч. 52 м.
Вид битрейта : Постоянный
Битрейт : 448 Кбит/сек
Каналы : 6 каналов
Расположение каналов : Front: L C R, Side: L R, LFE
Частота : 48,0 КГц
Битовая глубина : 16 бит
Метод сжатия : С потерями
Размер потока : 362 Мбайт (16%)
Заголовок : Dub | DD 5.1 @ 448 kbps BD CEE
Язык : Russian
Default : Да
Forced : Нет

Аудио #2
Идентификатор : 3
Формат : AC-3
Формат/Информация : Audio Coding 3
Расширение режима : CM (complete main)
Параметр Endianness формата : Big
Идентификатор кодека : A_AC3
Продолжительность : 1 ч. 52 м.
Вид битрейта : Постоянный
Битрейт : 448 Кбит/сек
Каналы : 6 каналов
Расположение каналов : Front: L C R, Side: L R, LFE
Частота : 48,0 КГц
Битовая глубина : 16 бит
Метод сжатия : С потерями
Размер потока : 362 Мбайт (16%)
Заголовок : Original | DD 5,1 @ 448 kbps - BD CEE
Язык : English
Default : Нет
Forced : Нет

Текст #1
Идентификатор : 4
Формат : UTF-8
Идентификатор кодека : S_TEXT/UTF8
Идентификатор кодека/Информация : UTF-8 Plain Text
Заголовок : форс.
Язык : Russian
Default : Да
Forced : Нет

Текст #2
Идентификатор : 5
Формат : UTF-8
Идентификатор кодека : S_TEXT/UTF8
Идентификатор кодека/Информация : UTF-8 Plain Text
Заголовок : полные
Язык : Russian
Default : Нет
Forced : Нет

Текст #3
Идентификатор : 6
Формат : UTF-8
Идентификатор кодека : S_TEXT/UTF8
Идентификатор кодека/Информация : UTF-8 Plain Text
Заголовок : полные
Язык : Ukrainian
Default : Нет
Forced : Нет

Текст #4
Идентификатор : 7
Формат : UTF-8
Идентификатор кодека : S_TEXT/UTF8
Идентификатор кодека/Информация : UTF-8 Plain Text
Заголовок : Full
Язык : English
Default : Нет
Forced : Нет

Текст #5
Идентификатор : 8
Формат : UTF-8
Идентификатор кодека : S_TEXT/UTF8
Идентификатор кодека/Информация : UTF-8 Plain Text
Заголовок : Comments
Язык : English
Default : Нет
Forced : Нет

Меню
00:00:00.000 : en:Chapter 01
00:08:05.193 : en:Chapter 02
00:13:03.032 : en:Chapter 03
00:18:21.850 : en:Chapter 04
00:23:37.541 : en:Chapter 05
00:31:31.431 : en:Chapter 06
00:35:21.744 : en:Chapter 07
00:39:44.882 : en:Chapter 08
00:44:28.791 : en:Chapter 09
00:49:56.368 : en:Chapter 10
00:54:22.884 : en:Chapter 11
01:00:06.394 : en:Chapter 12
01:07:31.338 : en:Chapter 13
01:11:58.272 : en:Chapter 14
01:18:04.471 : en:Chapter 15
01:23:14.280 : en:Chapter 16
01:27:40.004 : en:Chapter 17
01:35:15.876 : en:Chapter 18
01:40:17.928 : en:Chapter 19
01:47:05.252 : en:Chapter 20

pb.wtf



Скачать Телеведущий: И снова здравствуйте через торрент http://pic.kartinco.top/new/img/2014-06/07/9ri4gjq6iqy0j8vtagluat427.png Скачать фильм Телеведущий: И снова здравствуйте через торрент бесплантно в хорошем качестве Описание: Популярнейший телеведущий Сан-Диего 70-х годов, Рон Бургунди, возвращается, чтобы стать лучшим на первом 24-часовом новостном ... 10 10 12
Торрент: Зарегистрирован [2014-06-07 14:56] · скачан: 585 раз
Статус: √ проверено
Размер: 2.18 GB
Как cкачать? Как скачать Телеведущий: И снова здравствуйте через торрент | UTorrent

28-11-2019 20:33  

Отключить всю рекламу на сайте

18-06-2014 10:09 Телеведущий: И снова здравствуйте Скачать торрент  

фильм отстойpb.wtf



    Дорогой пользователь! Огромная просьба, поблагодарите релизера, оцените раздачу и оставьте свои комментарий, если Вы скачали Телеведущий: И снова здравствуйте через торрент бесплатно! Внесите свою лепту в развитие PiratBit!
    Комментировать посты могут только пользователи прошедшие не сложную регистрацию
    Показать сообщения:    

    Телеведущий: И снова здравствуйте через торрент
    Скачать бесплатно Телеведущий: И снова здравствуйте
    Телеведущий: И снова здравствуйте скачать торрент
    Телеведущий: И снова здравствуйте смотреть онлайн
    Cкачать фильм Телеведущий: И снова здравствуйте бесплатно
    Телеведущий: И снова здравствуйте скачать торрент в хорошем качестве
    Телеведущий: И снова здравствуйте смотреть онлайн бесплатно в хорошем качестве


    Вы не можете начинать темы
    Вы не можете отвечать на сообщения
    Вы не можете редактировать свои сообщения
    Вы не можете удалять свои сообщения
    Вы не можете голосовать в опросах
    Вы не можете прикреплять файлы к сообщениям
    Вы можете скачивать файлы