Ссылка на приватное зеркало нашего сайта всего за 1$. Внимание количество ограничено!!!

2 сезон

iTunes

1 сезон

1

iTunes

iTunes

iTunes

1 сезон

RePack

30

ИГРА 18+

pack

ВАЖНО

!!Акция!!

Alien_RageХит недели

RePack

MK11
pack

Забери бонус

RePack

jed

!!Акция!!

Alien_Rage

RePack

fifa19

RePack

Assassins Creed: Odyssey

RePack

NEED FOR SPEED™ PAYBACK

4 сезон

9 сезон

Бесстыжие 9 сезон

Все сериалы

все сериалы на PB.wtf

RePack

FAR CRY 5
  

Приключения мистера Пибоди и Шермана / Mr. Peabody & Sherman (Роб Минкофф) [2014 г., мультфильм, фантастика, комедия, приключения, семейный, BDRip, Дубляж Лицензия] pb.wtf

Приключения мистера Пибоди и Шермана через торрент pb.wtf

Размер: 2.19 GB | Добавлен: 6 лет 2 мес. назад | Торрент скачан:1551 раз
Скачать  

07-06-2014 15:06 Приключения мистера Пибоди и Шермана Скачать торрент  

Приключения мистера Пибоди и Шермана / Mr. Peabody & Sherman
Год выпуска: 2014
Страна: США / DreamWorks Animation, Pacific Data Images (PDI), Bullwinkle Studios
Жанр: мультфильм, фантастика, комедия, приключения, семейный
Продолжительность: 01:32:39
Перевод: Дубляж (Лицензия)

Режиссер: Роб Минкофф

В ролях: Тай Бурелл,Макс Чарльз,Эриель Винтер,Стефен Колбер,Лесли Манн,Эллисон Дженни,Стэнли Туччи,Том МакГрат,Лэйк Белл,Зак Каллисон

Описание: Мистер Пибоди — бизнесмен, изобретатель, ученый, нобелевский лауреат, гурман, двукратный олимпийский чемпион и гений… который кроме всего прочего является собакой. При помощи своего самого неординарного изобретения — машины ВЕЙБЕК — мистер Пибоди и его приемный сын Шерман мгновенно перемещаются в прошлое, где становятся свидетелями самых важных исторических событий и общаются с известными историческими персонажами. Но когда Шерман нарушает правила путешествий во времени, нашим героям приходится вновь отправиться в путь — на сей раз с целью восстановления цепи исторических событий и спасения будущего. Кроме того, мистеру Пибоди предстоит справиться с самой сложной для него задачей — стать настоящим отцом для Шермана

Качество: BDRip (Рип с Blu-ray CEE 1080p AVC DTS 5.1)
Формат: AVI
Видео кодек: XviD
Аудио кодек: AC3
Видео: MPEG4, XviD, 720x384 (1.875), 23.976 fps, 2 926 Kbps (0.441 bit/pixel)
Аудио: AC-3, 48.0 KHz, 6 ch, 448 Kbps, CBR


Общее
Полное имя : G:\кино\Приключения мистера Пибоди и Шермана.2014.BDRip.avi
Формат : AVI
Формат/Информация : Audio Video Interleave
Профиль формата : OpenDML
Размер файла : 2,19 Гбайт
Продолжительность : 1 ч. 32 м.
Общий поток : 3387 Кбит/сек
Программа кодирования : VirtualDubMod 1.5.10.3 | www.virtualdub-fr.org || (build 2550/release)
Библиотека кодирования : VirtualDubMod build 2550/release

Видео
Идентификатор : 0
Формат : MPEG-4 Visual
Профиль формата : Advanced Simple@L5
Параметр BVOP формата : 2
Параметр QPel формата : Нет
Параметр GMC формата : Без точки перехода
Параметр матрицы формата : Default (H.263)
Идентификатор кодека : XVID
Идентификатор кодека/Подсказка : XviD
Продолжительность : 1 ч. 32 м.
Битрейт : 2926 Кбит/сек
Ширина : 720 пикселей
Высота : 384 пикселя
Соотношение сторон : 1,85:1
Частота кадров : 23,976 кадра/сек
Цветовое пространство : YUV
Субдискретизация насыщенности : 4:2:0
Битовая глубина : 8 бит
Тип развёртки : Прогрессивная
Метод сжатия : С потерями
Бит/(Пиксели*Кадры) : 0.441
Размер потока : 1,89 Гбайт (86%)
Библиотека кодирования : XviD 1.2.1 (UTC 2008-12-04)

Аудио
Идентификатор : 1
Формат : AC-3
Формат/Информация : Audio Coding 3
Расширение режима : CM (complete main)
Параметр Endianness формата : Big
Идентификатор кодека : 2000
Продолжительность : 1 ч. 32 м.
Вид битрейта : Постоянный
Битрейт : 448 Кбит/сек
Каналы : 6 каналов
Расположение каналов : Front: L C R, Side: L R, LFE
Частота : 48,0 КГц
Битовая глубина : 16 бит
Метод сжатия : С потерями
Размер потока : 296 Мбайт (13%)
Выравнивание : Разделение по промежуткам
Продолжительность промежутка : 42 мс. (1,00 видеокадр)
Время предзагрузки промежутка : 500 мс.

pb.wtf



Скачать Приключения мистера Пибоди и Шермана через торрент http://pic.kartinco.top/images/6/ccrex.jpg Скачать фильм Приключения мистера Пибоди и Шермана через торрент бесплантно в хорошем качестве Описание: Мистер Пибоди — бизнесмен, изобретатель, ученый, нобелевский лауреат, гурман, двукратный олимпийский чемпион и гений… который ... 9.7 10 80
Торрент: Зарегистрирован [2014-08-04 16:32] · скачан: 1 551 раз
Статус: √ проверено
Размер: 2.19 GB
Как cкачать? Как скачать Приключения мистера Пибоди и Шермана через торрент | qTorrent



Последний раз редактировалось: coc900 (2014-08-04 16:32), всего редактировалось 1 раз

28-11-2019 20:33  

Отключить всю рекламу на сайте

10-06-2014 08:19 Приключения мистера Пибоди и Шермана Скачать торрент  

как мультик?имеет смысл посмотреть?pb.wtf



06-07-2014 07:29 Приключения мистера Пибоди и Шермана Скачать торрент  

Мультик замечательныйpb.wtf



04-08-2014 16:48 Приключения мистера Пибоди и Шермана Скачать торрент  

Релиз обновлен на лицензию !Просьба перекачать торрент файл pb.wtf



19-08-2014 13:14 Приключения мистера Пибоди и Шермана Скачать торрент  

Весьма и очень даже зачётный мульт pb.wtf



    Дорогой пользователь! Огромная просьба, поблагодарите релизера, оцените раздачу и оставьте свои комментарий, если Вы скачали Приключения мистера Пибоди и Шермана через торрент бесплатно! Внесите свою лепту в развитие PiratBit!
    Комментировать посты могут только пользователи прошедшие не сложную регистрацию
    Показать сообщения:    

    Приключения мистера Пибоди и Шермана через торрент
    Скачать бесплатно Приключения мистера Пибоди и Шермана
    Приключения мистера Пибоди и Шермана скачать торрент
    Приключения мистера Пибоди и Шермана смотреть онлайн
    Cкачать фильм Приключения мистера Пибоди и Шермана бесплатно
    Приключения мистера Пибоди и Шермана скачать торрент в хорошем качестве
    Приключения мистера Пибоди и Шермана смотреть онлайн бесплатно в хорошем качестве


    Вы не можете начинать темы
    Вы не можете отвечать на сообщения
    Вы не можете редактировать свои сообщения
    Вы не можете удалять свои сообщения
    Вы не можете голосовать в опросах
    Вы не можете прикреплять файлы к сообщениям
    Вы можете скачивать файлы