Мега распродажа FORZA HORIZON 4 ULTIMATE+ВСЕ DLC+ОНЛАЙН всего за 499р. 349 руб. (супер цена). Внимание количество ограничено!!!

iTunes

1+1

iTunes

мы

iTunes

1

1 сезон

Чернобыль

1 сезон

Ральф против интернета

Лицензия

ПШазам

8 сезон

Игра престолов

Лицензия

30
pack

ВАЖНО

!!Акция!!

Alien_RageХит недели

RePack

Resident Evil 21

ИГРА 18+

pack

RePack

Metro:Exodus

!!Акция!!

Alien_Rage

RePack

fifa19

RePack

Assassins Creed: Odyssey

RePack

NEED FOR SPEED™ PAYBACK

3 сезон

9 сезон

Бесстыжие 9 сезон

Все сериалы

все сериалы на PB.wtf

RePack

FAR CRY 5
Ребята, катастрофически не хватает 2730р. для оплаты серверов за ИЮНЬ (всвязи с блокировками трафик упал в 3 раза), 1-2р., выручайте.
  

Инквизитор / Серии:1-12 из 12 (Юрий Мороз) [2014 г., Детектив, триллер, SATRip] pb.wtf

Инквизитор через торрент pb.wtf

Размер: 6.82 GB | Добавлен: 5 лет 1 мес. назад | Торрент скачан:672 раза
Скачать  

07-06-2014 18:14 Инквизитор Скачать торрент  

Инквизитор
Год выпуска: 2014
Страна: Россия кинокомпания "Профит"
Жанр: Детектив, триллер
Продолжительность: 12 x ~ 00:51:00
Режиссер: Юрий Мороз
Продюссер: Игорь Толстунов, Сергей Козлов, Николай Суров
Сценарий: Олег Егоров
Премьера в мире: 21 апреля 2014


В ролях: Константин Лавроненко, Виктор Вержбицкий, Виктория Исакова, Андрей Смоляков, Александр Лыков, Николай Козак, Дарья Мороз, Александр Голубев, Дмитрий Астрахан, Алексей Кирсанов, Александр Числов, Максим Стоянов, Андрей Межулис, Мария Климова (II)
Описание: Провинциальный городок на западной границе России потрясает зловещая череда убийств. Некто с жестокостью средневекового инквизитора отправляет на тот свет влиятельных людей, оставляя загадочные послания на латыни. Кто следующий – Инквизитор подсказывает сам, но шанса на спасение не дает. Кажется, что Инквизитор может предугадать каждый шаг следствия, однако петербургская сыщица Наталья Серебрянская готова принять брошенный вызов…
Качество: SATRip
Формат: AVI
Видео кодек: XviD
Аудио кодек: MP3
Видео: Xvid 720x384, 25000fps, 1 433 Kbps
Аудио: MP3, 48000Hz, stereo, 192kbps
Релиз от: simka





General
Format : AVI
Format/Info : Audio Video Interleave
File size : 620 MiB
Duration : 50mn 57s
Overall bit rate : 1 701 Kbps
Writing application : VirtualDubModRus 1.5.10.2 (build 2542/release)
Writing library : VirtualDubMod build 2542/release

Video
ID : 0
Format : MPEG-4 Visual
Codec ID : XVID
Codec ID/Hint : XviD
Duration : 50mn 57s
Bit rate : 1 433 Kbps
Width : 720 pixels
Height : 384 pixels
Display aspect ratio : 1.85:1
Frame rate : 25.000 fps
Color space : YUV
Chroma subsampling : 4:2:0
Compression mode : Lossy
Bits/(Pixel*Frame) : 0.207
Stream size : 522 MiB (84%)

Audio
ID : 1
Format : MPEG Audio
Codec ID : 55
Codec ID/Hint : MP3
Duration : 50mn 57s
Bit rate : 192 Kbps
Channel(s) : 2 channels
Sampling rate : 48.0 KHz
Compression mode : Lossy
Stream size : 70.0 MiB (11%)
Alignment : Aligned on interleaves

pb.wtf



Скачать Инквизитор через торрент http://pic.kartinco.top/images/6/qk3pd.jpg Скачать фильм Инквизитор через торрент бесплантно в хорошем качестве Описание: Провинциальный городок на западной границе России потрясает зловещая череда убийств. Некто с жестокостью средневекового ... 9.7 10 26
Info! Золотая раздача, скачанное не засчитывается.
Торрент: Зарегистрирован [2014-06-07 18:14] · скачан: 672 раз
Статус: √ проверено
Размер: 6.82 GB
Как cкачать? Как скачать Инквизитор через торрент | qTorrent

% Раздел Тема Автор DL S | L
Наши сериалы [ 7.7 GB ] Инквизитор / Серии: 1-12 из 12 [2014 WEB-DL 720p] point.td Скачать
1 | 0
Наши сериалы [ 5.59 GB ] Инквизитор / Серии: 1-12 из 12 [2014 WEBRip-AVC] aleksan55 Скачать
2 | 0


>> Регистрируемся здесь <<






Отзывы и комментарии о схеме читаем и пишем здесь: ---> Отзывы и комментарии о схеме

Новые благодарочки в телеграм довольных пользователей:
скриншот   скриншот   скриншот   скриншот   скриншот

20-05-2015 17:31 Инквизитор Скачать торрент  

lug30 дайте пожалуйста докачать. Спасибо.pb.wtf



    Дорогой пользователь! Огромная просьба, поблагодарите релизера, оцените раздачу и оставьте свои комментарий, если Вы скачали Инквизитор через торрент бесплатно! Внесите свою лепту в развитие PiratBit!
    Комментировать посты могут только пользователи прошедшие не сложную регистрацию
    Показать сообщения:    

    Инквизитор через торрент
    Скачать бесплатно Инквизитор
    Инквизитор скачать торрент
    Инквизитор смотреть онлайн
    Cкачать фильм Инквизитор бесплатно
    Инквизитор скачать торрент в хорошем качестве
    Инквизитор смотреть онлайн бесплатно в хорошем качестве


    Вы не можете начинать темы
    Вы не можете отвечать на сообщения
    Вы не можете редактировать свои сообщения
    Вы не можете удалять свои сообщения
    Вы не можете голосовать в опросах
    Вы не можете прикреплять файлы к сообщениям
    Вы можете скачивать файлы