Ссылка на приватное зеркало всего за 1$. Внимание количество ограничено!!!


iTunes

1+1

iTunes

мы

WEB-DL

1

iTunes

Чернобыль

iTunes

Ральф против интернета

Лицензия

ПШазам

Лицензия

Оно 2

WEB-DL

30
pack

Вам бонус

ВАЖНО

!!Акция!!

Alien_RageХит недели

RePack

Resident Evil 21

ИГРА 18+

pack

RePack

jed

!!Акция!!

Alien_Rage

RePack

fifa19

RePack

Assassins Creed: Odyssey

RePack

NEED FOR SPEED™ PAYBACK

4 сезон

9 сезон

Бесстыжие 9 сезон

Все сериалы

все сериалы на PB.wtf

RePack

FAR CRY 5
Ребята, катастрофически не хватает 1900р. для оплаты серверов за Октябрь (всвязи с блокировками трафик упал в 3 раза), 1-2р., выручайте.
  

Жизнь в мотеле / The Motel Life (Алан Польски / Alan Polsky, Гейб Польски / Gabe Polsky) [2012, США, триллер, драма, детектив, WEB-DLRip,Любительский (двухголосый)[den904, DeadSno] pb.wtf

Жизнь в мотеле через торрент pb.wtf

Размер: 1.39 GB | Добавлен: 5 лет 6 мес. назад | Торрент скачан:77 раз
Скачать  

08-06-2014 14:37 Жизнь в мотеле Скачать торрент  

Жизнь в мотеле / The Motel Life
Год выпуска: 2012
Страна: США
Жанр: триллер, драма, детектив
Продолжительность: 01:25:11
Перевод: Любительский (двухголосый)[den904, DeadSno]
Субтитры: Нет

Режиссер: Алан Польски / Alan Polsky, Гейб Польски / Gabe Polsky
В ролях: Эмиль Хирш (Frank Lee), Стивен Дорфф (Jerry Lee), Крис Кристофферсон (Earl Hurley), Дакота Фаннинг (Annie James), Гаррет Бэкстром (Jerry Lee 16 years), Дженика Бергер (Polly flynn), Кристиан Круз (Officer), Шаэ Д’Лин (Claire), Ной Харпстер (Al Casey), Эндрю Ли (Frank - 14), Джошуа Леонард (Tommy), Хэйз МакАртур (Officer Cook)

Описание: Фильм рассказывает о нескольких неделях жизни двух парней из рабочего класса - братьев Фрэнка и Джерри Ли. Джерри Ли, находясь за рулем в нетрезвом состоянии, случайно сбивает насмерть велосипедиста, после чего братья скрываются от полиции. Неудача преследует героев еще с детства: мать умерла, когда они были подростками, а отец, выйдя из тюрьмы, так и не смог приспособиться к обычной жизни.

kinopoisk.ru: 6.342 (225)
imdb.com: 6.30 (1050)
MPAA: R - Лицам до 17 лет обязательно присутствие взрослого

Качество: WEB-DLRip
Формат: AVI
Видео кодек: XviD
Аудио кодек: AC3
Видео: XviD, 720x304 (2.35:1), 1554 kbps, 23,976 fps, 0,296 bpp
Аудио Ru: AC3 / 5.1 / 48 kHz / 384 kbps / 16 bit
Аудио En: AC3 / 5.1 / 48 kHz / 384 kbps / 16 bit

Релиз группы:


General
Complete name : C:\закачки\The.Motel.Life.2012.WEB-DLRip.CINEMANIA.avi
Format : AVI
Format/Info : Audio Video Interleave
File size : 1.39 GiB
Duration : 1h 25mn
Overall bit rate : 2 336 Kbps
Writing application : VirtualDubMod 1.5.10.2 (build 2542/release)
Writing library : VirtualDubMod build 2542/release

Video
ID : 0
Format : MPEG-4 Visual
Format profile : Advanced Simple@L5
Format settings, BVOP : 2
Format settings, QPel : No
Format settings, GMC : No warppoints
Format settings, Matrix : Default (H.263)
Muxing mode : Packed bitstream
Codec ID : XVID
Codec ID/Hint : XviD
Duration : 1h 25mn
Bit rate : 1 554 Kbps
Width : 720 pixels
Height : 304 pixels
Display aspect ratio : 2.35:1
Frame rate : 23.976 fps
Color space : YUV
Chroma subsampling : 4:2:0
Bit depth : 8 bits
Scan type : Progressive
Compression mode : Lossy
Bits/(Pixel*Frame) : 0.296
Stream size : 947 MiB (67%)
Writing library : XviD 64

Audio #1
ID : 1
Format : AC-3
Format/Info : Audio Coding 3
Mode extension : CM (complete main)
Codec ID : 2000
Duration : 1h 25mn
Bit rate mode : Constant
Bit rate : 384 Kbps
Channel(s) : 6 channels
Channel positions : Front: L C R, Side: L R, LFE
Sampling rate : 48.0 KHz
Bit depth : 16 bits
Compression mode : Lossy
Stream size : 234 MiB (16%)
Alignment : Split accross interleaves
Interleave, duration : 42 ms (1.00 video frame)
Interleave, preload duration : 500 ms

Audio #2
ID : 2
Format : AC-3
Format/Info : Audio Coding 3
Mode extension : CM (complete main)
Codec ID : 2000
Duration : 1h 25mn
Bit rate mode : Constant
Bit rate : 384 Kbps
Channel(s) : 6 channels
Channel positions : Front: L C R, Side: L R, LFE
Sampling rate : 48.0 KHz
Bit depth : 16 bits
Compression mode : Lossy
Stream size : 234 MiB (16%)
Alignment : Aligned on interleaves
Interleave, duration : 42 ms (1.00 video frame)
Interleave, preload duration : 512 ms
pb.wtf



Скачать Жизнь в мотеле через торрент http://i64.fastpic.ru/big/2014/0608/5f/80ebb6bb81026765943ccfdac1b3e65f.jpg Скачать фильм Жизнь в мотеле через торрент бесплантно в хорошем качестве Описание: Фильм рассказывает о нескольких неделях жизни двух парней из рабочего класса - братьев Фрэнка и Джерри Ли. Джерри Ли, находясь за ... 10 10 1
Торрент: Зарегистрирован [2014-06-08 14:37] · скачан: 77 раз
Статус: √ проверено
Размер: 1.39 GB
Как cкачать? Как скачать Жизнь в мотеле через торрент | qTorrent

28-11-2019 20:33  

Отключить всю рекламу на сайте

    Дорогой пользователь! Огромная просьба, поблагодарите релизера, оцените раздачу и оставьте свои комментарий, если Вы скачали Жизнь в мотеле через торрент бесплатно! Внесите свою лепту в развитие PiratBit!
    Комментировать посты могут только пользователи прошедшие не сложную регистрацию
    Показать сообщения:    

    Жизнь в мотеле через торрент
    Скачать бесплатно Жизнь в мотеле
    Жизнь в мотеле скачать торрент
    Жизнь в мотеле смотреть онлайн
    Cкачать фильм Жизнь в мотеле бесплатно
    Жизнь в мотеле скачать торрент в хорошем качестве
    Жизнь в мотеле смотреть онлайн бесплатно в хорошем качестве


    Вы не можете начинать темы
    Вы не можете отвечать на сообщения
    Вы не можете редактировать свои сообщения
    Вы не можете удалять свои сообщения
    Вы не можете голосовать в опросах
    Вы не можете прикреплять файлы к сообщениям
    Вы можете скачивать файлы