Ссылка на приватное зеркало нашего сайта всего за 1$. Внимание количество ограничено!!!

2 сезон

iTunes

1 сезон

1

iTunes

iTunes

iTunes

1 сезон

RePack

30

ИГРА 18+

pack

ВАЖНО

!!Акция!!

Alien_RageХит недели

RePack

MK11
pack

Забери бонус

RePack

jed

!!Акция!!

Alien_Rage

RePack

fifa19

RePack

Assassins Creed: Odyssey

RePack

NEED FOR SPEED™ PAYBACK

4 сезон

9 сезон

Бесстыжие 9 сезон

Все сериалы

все сериалы на PB.wtf

RePack

FAR CRY 5
  

Волчья яма 2 / Wolf Creek 2 (Грег МакЛин) [2013 г., ужасы, триллер, HDRip, Любительский одноголосый] pb.wtf

Волчья яма 2 через торрент pb.wtf

Размер: 2.03 GB | Добавлен: 6 лет 4 мес. назад | Торрент скачан:171 раз
Скачать  

08-06-2014 15:04 Волчья яма 2 Скачать торрент  

Волчья яма 2 / Wolf Creek 2
Год выпуска: 2013
Страна: Австралия / Duo Art Productions, Emu Creek Pictures
Жанр: ужасы, триллер
Продолжительность: 01:46:15
Перевод: Любительский одноголосый (ХихиДок)

Режиссер: Грег МакЛин

В ролях: Джон Джэррэт, Райан Корр, Шеннон Эшлин, Филлипп Клаус, Герард Кеннеди, Энни Байрон, Шэйн Коннор, Бен Джеррард, Хлоя Борхэм, Райан Кларк

Описание: Туристы Рутгер, Катарина и Пауль приезжают к знаменитой австралийской достопримечательности, кратеру потухшего вулкана Волчья Яма. Их мечты о приключениях вскоре обращаются в чудовищную реальность, когда они сталкиваются с печально известным местным жителем, садистом-убийцей Миком Тэйлором…

Доп. информация: Местами вшитые английские субтитры

Качество: HDRip
Формат: AVI
Видео кодек: XviD
Аудио кодек: AC3
Видео: 720x304 (2.37:1), 23.976 fps, XviD build 50 ~2542 kbps avg, 0.48 bit/pixel
Аудио: 48 kHz, AC3 Dolby Digital, 2/0 (L,R) Surround Encoded ch, ~192 kbps
скриншот   скриншот   скриншот   скриншот   скриншот  

Общее
Полное имя : H:\кино\Wolf.Creek.2.2013.HDRip.avi
Формат : AVI
Формат/Информация : Audio Video Interleave
Профиль формата : OpenDML
Размер файла : 2,03 Гбайт
Продолжительность : 1 ч. 46 м.
Общий поток : 2741 Кбит/сек
Программа кодирования : VirtualDubMod 1.5.10.3 | www.virtualdub-fr.org || (build 2550/release)
Библиотека кодирования : VirtualDubMod build 2550/release

Видео
Идентификатор : 0
Формат : MPEG-4 Visual
Профиль формата : Advanced Simple@L5
Параметр BVOP формата : 2
Параметр QPel формата : Нет
Параметр GMC формата : Без точки перехода
Параметр матрицы формата : Default (H.263)
Идентификатор кодека : XVID
Идентификатор кодека/Подсказка : XviD
Продолжительность : 1 ч. 46 м.
Битрейт : 2536 Кбит/сек
Ширина : 720 пикселей
Высота : 304 пикселя
Соотношение сторон : 2,35:1
Частота кадров : 23,976 кадра/сек
Цветовое пространство : YUV
Субдискретизация насыщенности : 4:2:0
Битовая глубина : 8 бит
Тип развёртки : Прогрессивная
Метод сжатия : С потерями
Бит/(Пиксели*Кадры) : 0.483
Размер потока : 1,88 Гбайт (93%)
Библиотека кодирования : XviD 1.2.1 (UTC 2008-12-04)

Аудио
Идентификатор : 1
Формат : AC-3
Формат/Информация : Audio Coding 3
Профиль формата : Dolby Digital
Расширение режима : CM (complete main)
Параметр Endianness формата : Big
Идентификатор кодека : 2000
Продолжительность : 1 ч. 46 м.
Вид битрейта : Постоянный
Битрейт : 192 Кбит/сек
Каналы : 2 канала
Расположение каналов : Front: L R
Частота : 48,0 КГц
Битовая глубина : 16 бит
Метод сжатия : С потерями
Размер потока : 146 Мбайт (7%)
Выравнивание : Разделение по промежуткам
Продолжительность промежутка : 42 мс. (1,00 видеокадр)
Время предзагрузки промежутка : 500 мс.

pb.wtf



Скачать Волчья яма 2 через торрент http://pic.kartinco.top/images/6/psin2.jpg Скачать фильм Волчья яма 2 через торрент бесплантно в хорошем качестве Описание: Туристы Рутгер, Катарина и Пауль приезжают к знаменитой австралийской достопримечательности, кратеру потухшего вулкана Волчья ... 10 10 4
Торрент: Зарегистрирован [2014-06-08 15:04] · скачан: 171 раз
Статус: T временная
Размер: 2.03 GB
Как cкачать? Как скачать Волчья яма 2 через торрент | qTorrent

% Раздел Тема Автор DL S | L
Зарубежные сериалы [ 14.55 GB ] Волчья яма / Wolf Creek / Сезон: 2 / Серии: 1-6 из 6 [2017 WEB-DL 1080p] DVO [ViruseProject] bober100 Скачать
1 | 0
Зарубежные сериалы [ 10.89 GB ] Волчья яма / Wolf Creek / Сезон: 2 / Серии 1-6 из 6 [2016 Австралия WEBRip 720p] MVO [BaibaKo] GEKADOL Скачать
1 | 0
Зарубежные сериалы [ 3.94 GB ] Волчья яма / Wolf Creek / Сезон: 2 / Серии 1-6 из 6 [2017 Австралия WEBRip] MVO [BaibaKo] GEKADOL Скачать
1 | 0
T Фильмы 2013 (Звук TS, Cam, VO, DVO) [ 1.47 GB ] Волчья яма 2 / Wolf Creek 2 [2013 Австралия WEB-DLRipЛюбительский [den904 DeadSno] Ворон Скачать
1 | 0

28-11-2019 20:33  

Отключить всю рекламу на сайте

    Дорогой пользователь! Огромная просьба, поблагодарите релизера, оцените раздачу и оставьте свои комментарий, если Вы скачали Волчья яма 2 через торрент бесплатно! Внесите свою лепту в развитие PiratBit!
    Комментировать посты могут только пользователи прошедшие не сложную регистрацию
    Показать сообщения:    

    Волчья яма 2 через торрент
    Скачать бесплатно Волчья яма 2
    Волчья яма 2 скачать торрент
    Волчья яма 2 смотреть онлайн
    Cкачать фильм Волчья яма 2 бесплатно
    Волчья яма 2 скачать торрент в хорошем качестве
    Волчья яма 2 смотреть онлайн бесплатно в хорошем качестве


    Вы не можете начинать темы
    Вы не можете отвечать на сообщения
    Вы не можете редактировать свои сообщения
    Вы не можете удалять свои сообщения
    Вы не можете голосовать в опросах
    Вы не можете прикреплять файлы к сообщениям
    Вы можете скачивать файлы