2 сезон

iTunes

MVO

1

2 сезон

iTunes

iTunes

1 сезон

RePack

30

Новинка

ВАЖНО

ИГРА 18+

pack

RePack

MK11
pack

Легкие деньги

RePack

jed

RePack

fifa19

RePack

RDR2

RePack

NEED FOR SPEED™ PAYBACK

4 сезон

9 сезон

Бесстыжие 9 сезон

Все сериалы

все сериалы на PB.wtf

RePack

FAR CRY 5

Anonymous, доброе утро, мы не успеваем собрать деньги на оплату серверов за декабрь и январь, помогите нам пожалуйста в это трудное время. В качестве благодарности мы отключим Вам всю рекламу на сайте (укажите свой ник в строку Ваше имя)!

×
  
Magnet ссылка

Хорошенькая / The Pretty One (Джин Маркью) [2013 г., Драма, комедия, WEB-DLRip] MVO (iTunes) pb.wtf

Хорошенькая через торрент pb.wtf

Размер: 1.37 GB | Добавлен: 6 лет 7 мес. назад | Торрент скачан:460 раз
Скачать  

08-06-2014 17:50 Хорошенькая Скачать торрент  

Хорошенькая / The Pretty One
Год выпуска: 2013
Страна: США Provenance Pictures, RCR Pictures
Жанр: Драма, комедия
Продолжительность: 01:35:17
Перевод: Профессиональный многоголосый (iTunes)
Режиссер: Джин Маркью
Продюссер: Робин Шорр, Кори Лардж, Алан Пао
Сценарий: Джин Маркью
Премьера в мире: 20 апреля 2013

В ролях: Джейк Джонсон, Зои Кэзен, Рон Ливингстон, Фрэнки Шоу, Дэнни Пуди, Стерлинг Бомон, Джереми Ховард, Джон Кэрролл Линч, Сабрина Ллойд, Шаэ Д’Лин
Описание: Когда эксцентричную молодую женщину ошибочно принимают за ее мертвую сестру-близнеца, она цепляется за эту возможность оставить свое жалкое существование и начать жить ее жизнью…
Качество: WEB-DLRip
Формат: AVI
Видео кодек: XviD
Аудио кодек: AC3
Видео: Xvid 720x384, 23.976fps, 1 580 Kbps
Аудио: Dolby AC3, 48000Hz, 6ch, 384kbps
Релиз от: STARBIT





General
Format : AVI
Format/Info : Audio Video Interleave
File size : 1.37 GiB
Duration : 1h 35mn
Overall bit rate : 2 054 Kbps
Writing application : VirtualDubMod 1.5.10.3 | (build 2550/release)
Writing library : VirtualDubMod build 2550/release

Video
ID : 0
Format : MPEG-4 Visual
Codec ID : XVID
Codec ID/Hint : XviD
Duration : 1h 35mn
Bit rate : 1 580 Kbps
Width : 720 pixels
Height : 384 pixels
Display aspect ratio : 1.85:1
Frame rate : 23.976 fps
Color space : YUV
Chroma subsampling : 4:2:0
Compression mode : Lossy
Bits/(Pixel*Frame) : 0.238
Stream size : 1.05 GiB (77%)

Audio
ID : 1
Format : AC-3
Format/Info : Audio Coding 3
Codec ID : 2000
Duration : 1h 35mn
Bit rate mode : Constant
Bit rate : 384 Kbps
Channel(s) : 6 channels
Sampling rate : 48.0 KHz
Compression mode : Lossy
Stream size : 262 MiB (19%)
Alignment : Aligned on interleaves

pb.wtf



Скачать Хорошенькая через торрент http://pic.kartinco.top/images/6/l8lro.jpg Скачать фильм Хорошенькая через торрент бесплантно в хорошем качестве Описание: Когда эксцентричную молодую женщину ошибочно принимают за ее мертвую сестру-близнеца, она цепляется за эту возможность оставить ... 9.4 10 12
Торрент: Зарегистрирован [2014-06-08 17:50] · скачан: 460 раз
Статус: T временная
Размер: 1.37 GB
Как cкачать? Как скачать Хорошенькая через торрент | UTorrent

28-11-2019 20:33  

Отключить всю рекламу на сайте

    Дорогой пользователь! Огромная просьба, поблагодарите релизера, оцените раздачу и оставьте свои комментарий, если Вы скачали Хорошенькая через торрент бесплатно! Внесите свою лепту в развитие PiratBit!
    Комментировать посты могут только пользователи прошедшие не сложную регистрацию
    Показать сообщения:    

    Хорошенькая через торрент
    Скачать бесплатно Хорошенькая
    Хорошенькая скачать торрент
    Хорошенькая смотреть онлайн
    Cкачать фильм Хорошенькая бесплатно
    Хорошенькая скачать торрент в хорошем качестве
    Хорошенькая смотреть онлайн бесплатно в хорошем качестве


    Вы не можете начинать темы
    Вы не можете отвечать на сообщения
    Вы не можете редактировать свои сообщения
    Вы не можете удалять свои сообщения
    Вы не можете голосовать в опросах
    Вы не можете прикреплять файлы к сообщениям
    Вы можете скачивать файлы