Мега распродажа FORZA HORIZON 4 ULTIMATE+ВСЕ DLC+ОНЛАЙН всего за 499р. 349 руб. (супер цена). Внимание количество ограничено!!!

iTunes

1+1

iTunes

мы

iTunes

1

1 сезон

Чернобыль

1 сезон

Ральф против интернета

Лицензия

ПШазам

8 сезон

Игра престолов

Лицензия

30
pack

ВАЖНО

!!Акция!!

Alien_RageХит недели

RePack

Resident Evil 21

ИГРА 18+

pack

RePack

Metro:Exodus

!!Акция!!

Alien_Rage

RePack

fifa19

RePack

Assassins Creed: Odyssey

RePack

NEED FOR SPEED™ PAYBACK

3 сезон

9 сезон

Бесстыжие 9 сезон

Все сериалы

все сериалы на PB.wtf

RePack

FAR CRY 5
Ребята, катастрофически не хватает 2730р. для оплаты серверов за ИЮНЬ (всвязи с блокировками трафик упал в 3 раза), 1-2р., выручайте.
  

Слепой расчет / Серия 1-4 из 4) (Альбина Антипенко) [2014 г., мелодрама, SATRip] pb.wtf

Слепой расчет через торрент pb.wtf

Размер: 2.15 GB | Добавлен: 5 лет 1 мес. назад | Торрент скачан:419 раз
Скачать  

09-06-2014 06:14 Слепой расчет Скачать торрент  

Слепой расчет Год выпуска: 2014
Страна: Россия
Жанр: мелодрама
Продолжительность: 4 х 45 минут

Режиссер: Альбина Антипенко

В ролях: Серафима Огарёва, Игорь Сигов, Татьяна Чердынцева

Описание: Когда речь идёт о любви, можно ли всё обдумать, просчитать? Что лучше послушать - своё сердце или голову? Можно использовать коварный план и слепой расчёт, но принесёт ли это счастье? Любовь и коварство всегда ходят рядом. История двух женщин, чьи судьбы переплелись в любви, предательстве и ненависти любовного треугольника...

Качество: SATRip
Формат: AVI
Видео кодек: DivX
Аудио кодек: MP3
Видео: MPEG4, DivX 5, 704x368 (1.913), 25.000 fps, 1 600 Kbps (0.247 bit/pixel)
Аудио: MP3, 48.0 KHz, 2 ch, 128 Kbps, CBR
скриншот   скриншот   скриншот   скриншот   скриншот   скриншот   скриншот  

Код:

Формат                                   : AVI
Формат/Информация                        : Audio Video Interleave
Размер файла                             : 578 Мбайт
Продолжительность                        : 46 м.
Общий поток                              : 1738 Кбит/сек
Программа кодирования                    : VirtualDubMod 1.5.10.2 (build 2540/release)
Библиотека кодирования                   : VirtualDub build 29808/release

Видео
Идентификатор                            : 0
Формат                                   : MPEG-4 Visual
Параметр BVOP формата                    : Нет
Параметр QPel формата                    : Нет
Параметр GMC формата                     : Без точки перехода
Параметр матрицы формата                 : Default (H.263)
Идентификатор кодека                     : DX50
Идентификатор кодека/Подсказка           : DivX 5
Продолжительность                        : 46 м.
Битрейт                                  : 1600 Кбит/сек
Ширина                                   : 704 пикселя
Высота                                   : 368 пикселей
Соотношение сторон                       : 1,913
Частота кадров                           : 25,000 кадров/сек
Цветовое пространство                    : YUV
Субдискретизация насыщенности            : 4:2:0
Битовая глубина                          : 8 бит
Тип развёртки                            : Прогрессивная
Метод сжатия                             : С потерями
Бит/(Пиксели*Кадры)                      : 0.247
Размер потока                            : 532 Мбайт (92%)
Библиотека кодирования                   : DivX 6.8.5 (UTC 2009-08-20)

Аудио
Идентификатор                            : 1
Формат                                   : MPEG Audio
Версия формата                           : Version 1
Профиль формата                          : Layer 3
Режим                                    : Joint stereo
Расширение режима                        : MS Stereo
Идентификатор кодека                     : 55
Идентификатор кодека/Подсказка           : MP3
Продолжительность                        : 46 м.
Вид битрейта                             : Постоянный
Битрейт                                  : 128 Кбит/сек
Каналы                                   : 2 канала
Частота                                  : 48,0 КГц
Метод сжатия                             : С потерями
Размер потока                            : 42,6 Мбайт (7%)
Выравнивание                             : Соединение по промежуткам
Продолжительность промежутка             : 40  мс. (1,00 видеокадр)
Время предзагрузки промежутка            : 504  мс.
Библиотека кодирования                   : LAME3.90.3


pb.wtf



Скачать Слепой расчет через торрент http://pic.kartinco.top/new/img/2014-06/09/ifey685c24gvyzrdhgru42yxd.jpg Скачать фильм Слепой расчет через торрент бесплантно в хорошем качестве Описание: Когда речь идёт о любви, можно ли всё обдумать, просчитать? Что лучше послушать - своё сердце или голову? Можно использовать ... 10 10 10
Info! Золотая раздача, скачанное не засчитывается.
Торрент: Зарегистрирован [2014-06-09 06:14] · скачан: 419 раз
Статус: √ проверено
Размер: 2.15 GB
Как cкачать? Как скачать Слепой расчет через торрент | qTorrent


>> Регистрируемся здесь <<






Отзывы и комментарии о схеме читаем и пишем здесь: ---> Отзывы и комментарии о схеме

Новые благодарочки в телеграм довольных пользователей:
скриншот   скриншот   скриншот   скриншот   скриншот

09-06-2014 06:47 Слепой расчет Скачать торрент  

Благодарю! скачаю жене она любит мелодрамы.pb.wtf



07-08-2014 18:55 Слепой расчет Скачать торрент  

Спасибо, посмотрим.pb.wtf



    Дорогой пользователь! Огромная просьба, поблагодарите релизера, оцените раздачу и оставьте свои комментарий, если Вы скачали Слепой расчет через торрент бесплатно! Внесите свою лепту в развитие PiratBit!
    Комментировать посты могут только пользователи прошедшие не сложную регистрацию
    Показать сообщения:    

    Слепой расчет через торрент
    Скачать бесплатно Слепой расчет
    Слепой расчет скачать торрент
    Слепой расчет смотреть онлайн
    Cкачать фильм Слепой расчет бесплатно
    Слепой расчет скачать торрент в хорошем качестве
    Слепой расчет смотреть онлайн бесплатно в хорошем качестве


    Вы не можете начинать темы
    Вы не можете отвечать на сообщения
    Вы не можете редактировать свои сообщения
    Вы не можете удалять свои сообщения
    Вы не можете голосовать в опросах
    Вы не можете прикреплять файлы к сообщениям
    Вы можете скачивать файлы