Мега распродажа FORZA HORIZON 4 ULTIMATE+ВСЕ DLC+ОНЛАЙН всего за 499р. 349 руб. (супер цена). Внимание количество ограничено!!!

iTunes

1+1

iTunes

мы

iTunes

1

1 сезон

Чернобыль

1 сезон

Ральф против интернета

Лицензия

ПШазам

8 сезон

Игра престолов

Лицензия

30
pack

ВАЖНО

!!Акция!!

Alien_RageХит недели

RePack

Resident Evil 21

ИГРА 18+

pack

RePack

Metro:Exodus

!!Акция!!

Alien_Rage

RePack

fifa19

RePack

Assassins Creed: Odyssey

RePack

NEED FOR SPEED™ PAYBACK

3 сезон

9 сезон

Бесстыжие 9 сезон

Все сериалы

все сериалы на PB.wtf

RePack

FAR CRY 5
Ребята, катастрофически не хватает 2730р. для оплаты серверов за ИЮНЬ (всвязи с блокировками трафик упал в 3 раза), 1-2р., выручайте.
  

Спящий лагерь / Sleepaway Camp (Роберт Хилтзик) [1983 г., Ужасы, триллер, HDRip-AVC, Профессиональный многоголосый] от DHT-Movies pb.wtf

Спящий лагерь через торрент pb.wtf

Размер: 1.71 GB | Добавлен: 5 лет 1 мес. назад | Торрент скачан:57 раз
Скачать  

09-06-2014 15:46 Спящий лагерь Скачать торрент  

Спящий лагерь / Sleepaway CampГод выпуска: 1983
Страна: США
Жанр: Ужасы, триллер
Продолжительность: 01:24:51
Перевод: Профессиональный многоголосый
Субтитры: Английские (softsub (SRT)

Режиссер: Роберт Хилтзик
Продюссер: Джерри Силва, Мишель Татосян, Роберт Хилтзик
Сценарий: Роберт Хилтзик

Бюджет: $350 000
Премьера в мире: 18 ноября 1983



В ролях: Фелисса Роуз, Джонатан Тирстен, Карен Филдс, Кристофер Коллет, Майк Келлин, Кэтрин Кэми, Пол ДеАнджело, Томас Е. ван Делл, Лорис Саллахиан, Джон Э. Данн

Описание: На озере тонет яхта с мужчиной и двумя его детьми на борту. Катающиеся рядом на катерах подростки не обратили внимания на разыгравшуюся трагедию. В результате их неосторожной езды мужчина и его сын погибают. Оставшаяся в живых девочка Анжела отправляется жить вместе со своей тётей Мартой и двоюродным братом Рикки. Только теперь девочка постоянно молчит, перенеся сильный травматический шок. Восемь лет спустя Анжела и Рикки отправляются в летний лагерь, на озеро, где погибли её отец и брат. Необщительная Анжела становится предметом нападок и шуток со стороны подростков. Она не устраивает своим поведением даже взрослых. И вскоре люди, которые причиняли ей боль, начинают погибать от рук таинственного убийцы…

Качество: HDRip-AVC | BDRip 1080p
Формат: MKV
Видео кодек: H.264
Аудио кодек: AC3
Видео: 1024 x 576 (16:9), 23,976 fps, AVC (х264) High@L4.1, ~ 2500 Kbps, 0.177 bit/pixel
Аудио: 48 kHz, AC3 Dolby Digital, 3/2 (L,C,R,l,r) + LFE ch, ~ 384 kbps avg


Релиз группа: | by Dean24
скриншот  скриншот  скриншот  
скриншот  скриншот  скриншот  





avs [info]: 1024x576p 1:1 @ 2500000/104271 fps (cfr)
x264 [info]: using SAR=1/1
x264 [info]: using cpu capabilities: MMX2 SSE2Fast SSSE3 Cache64 SlowShuffle
x264 [info]: profile High, level 4.0
x264 [info]: frame I:841 Avg QP:19.02 size:116084
x264 [info]: frame P:22829 Avg QP:21.77 size: 29123
x264 [info]: frame B:98369 Avg QP:22.59 size: 8416
x264 [info]: consecutive B-frames: 1.2% 1.4% 3.9% 11.3% 10.2% 56.3% 6.4% 2.8% 5.1% 1.5%
x264 [info]: mb I I16..4: 8.6% 70.7% 20.6%
x264 [info]: mb P I16..4: 1.1% 7.5% 1.0% P16..4: 46.0% 21.8% 19.0% 0.6% 0.3% skip: 2.8%
x264 [info]: mb B I16..4: 0.1% 1.0% 0.1% B16..8: 41.5% 8.3% 2.1% direct: 8.2% skip:38.7% L0:46.0% L1:46.9% BI: 7.1%
x264 [info]: 8x8 transform intra:78.8% inter:60.9%
x264 [info]: direct mvs spatial:97.8% temporal:2.2%
x264 [info]: coded y,uvDC,uvAC intra: 90.8% 76.9% 44.2% inter: 26.9% 26.2% 2.3%
x264 [info]: i16 v,h,dc,p: 28% 21% 21% 30%
x264 [info]: i8 v,h,dc,ddl,ddr,vr,hd,vl,hu: 7% 8% 5% 11% 16% 14% 15% 11% 13%
x264 [info]: i4 v,h,dc,ddl,ddr,vr,hd,vl,hu: 8% 9% 4% 9% 15% 14% 15% 12% 15%
x264 [info]: i8c dc,h,v,p: 42% 24% 18% 15%
x264 [info]: Weighted P-Frames: Y:4.3% UV:2.0%
x264 [info]: ref P L0: 37.4% 11.4% 19.1% 6.2% 6.1% 4.0% 4.1% 2.0% 2.1% 1.6% 1.7% 1.4% 1.5% 1.3% 0.1% 0.0%
x264 [info]: ref B L0: 64.3% 13.1% 6.9% 3.7% 2.7% 2.4% 2.0% 1.2% 1.0% 1.0% 0.9% 0.5% 0.2%
x264 [info]: ref B L1: 90.4% 9.6%
x264 [info]: kb/s:2499.60

x264 [total]: encoded 122039 frames, 1.78 fps, 2499.60 kb/s
__________________________
Общее:
Уникальный идентификатор: 195883128803958309217622632379790889948 (0x935DB7E4E49DDA7FA370E9128FFB93DC)
Полное имя: D:\Для сайта\Rip's\Sleepaway_Camp_HDRip-AVC_ot_DHT-Movies.mkv
Формат: Matroska
Версия формата: Version 4 / Version 2
Размер файла: 1,71 Гбайт
Продолжительность: 1 ч. 24 м.
Общий поток: 2885 Кбит/сек
Дата кодирования: UTC 2014-06-01 12:24:56
Программа кодирования: mkvmerge v6.6.0 ('The Edge Of The In Between') built on Dec 1 2013 17:55:00
Библиотека кодирования: libebml v1.3.0 + libmatroska v1.4.1

Видео:
Идентификатор: 1
Формат: AVC
Формат/Информация: Advanced Video Codec
Профиль формата: High@L4.0
Параметр CABAC формата: Да
Параметр ReFrames формата: 14 кадров
Идентификатор кодека: V_MPEG4/ISO/AVC
Продолжительность: 1 ч. 24 м.
Битрейт: 2500 Кбит/сек
Ширина: 1024 пикселя
Высота: 576 пикселей
Соотношение сторон: 16:9
Режим частоты кадров: Постоянный
Частота кадров: 23,976 кадра/сек
Цветовое пространство: YUV
Субдискретизация насыщенности: 4:2:0
Битовая глубина: 8 бит
Тип развёртки: Прогрессивная
Бит/(Пиксели*Кадры): 0.177
Размер потока: 1,45 Гбайт (85%)
Библиотека кодирования: x264 core 130 r2273 b3065e6
Настройки программы: cabac=1 / ref=14 / deblock=1:-2:-1 / analyse=0x3:0x133 / me=umh / subme=10 / psy=1 / psy_rd=1.05:0.10 / mixed_ref=1 / me_range=32 / chroma_me=1 / trellis=2 / 8x8dct=1 / cqm=0 / deadzone=21,11 / fast_pskip=0 / chroma_qp_offset=-3 / threads=3 / lookahead_threads=1 / sliced_threads=0 / nr=0 / decimate=1 / interlaced=0 / bluray_compat=0 / constrained_intra=0 / bframes=9 / b_pyramid=2 / b_adapt=2 / b_bias=0 / direct=3 / weightb=1 / open_gop=0 / weightp=2 / keyint=240 / keyint_min=23 / scenecut=40 / intra_refresh=0 / rc_lookahead=60 / rc=2pass / mbtree=1 / bitrate=2500 / ratetol=1.0 / qcomp=0.60 / qpmin=0 / qpmax=69 / qpstep=4 / cplxblur=20.0 / qblur=0.5 / ip_ratio=1.40 / aq=1:1.00
Default: Да
Forced: Нет

Аудио:
Идентификатор: 2
Формат: AC-3
Формат/Информация: Audio Coding 3
Расширение режима: CM (complete main)
Параметр Endianness формата: Big
Идентификатор кодека: A_AC3
Продолжительность: 1 ч. 24 м.
Вид битрейта: Постоянный
Битрейт: 384 Кбит/сек
Каналы: 2 канала
Расположение каналов: Front: L R
Частота: 48,0 КГц
Битовая глубина: 16 бит
Метод сжатия: С потерями
Размер потока: 233 Мбайт (13%)
Default: Да
Forced: Нет

Текст:
Идентификатор: 3
Формат: UTF-8
Идентификатор кодека: S_TEXT/UTF8
Идентификатор кодека/Информация: UTF-8 Plain Text
Заголовок: английский
Язык: English
Default: Нет
Forced: Нет

pb.wtf



Скачать Спящий лагерь через торрент http://i62.fastpic.ru/big/2014/0601/d9/8b3aa34d588d309fc209935e485536d9.png Скачать фильм Спящий лагерь через торрент бесплантно в хорошем качестве Описание: На озере тонет яхта с мужчиной и двумя его детьми на борту. Катающиеся рядом на катерах подростки не обратили внимания на ... 5.5 10 2
Торрент: Зарегистрирован [2014-06-09 15:46] · скачан: 57 раз
Статус: √ проверено
Размер: 1.71 GB
Как cкачать? Как скачать Спящий лагерь через торрент | qTorrent


>> Регистрируемся здесь <<






Отзывы и комментарии о схеме читаем и пишем здесь: ---> Отзывы и комментарии о схеме

Новые благодарочки в телеграм довольных пользователей:
скриншот   скриншот   скриншот   скриншот   скриншот
    Дорогой пользователь! Огромная просьба, поблагодарите релизера, оцените раздачу и оставьте свои комментарий, если Вы скачали Спящий лагерь через торрент бесплатно! Внесите свою лепту в развитие PiratBit!
    Комментировать посты могут только пользователи прошедшие не сложную регистрацию
    Показать сообщения:    

    Спящий лагерь через торрент
    Скачать бесплатно Спящий лагерь
    Спящий лагерь скачать торрент
    Спящий лагерь смотреть онлайн
    Cкачать фильм Спящий лагерь бесплатно
    Спящий лагерь скачать торрент в хорошем качестве
    Спящий лагерь смотреть онлайн бесплатно в хорошем качестве


    Вы не можете начинать темы
    Вы не можете отвечать на сообщения
    Вы не можете редактировать свои сообщения
    Вы не можете удалять свои сообщения
    Вы не можете голосовать в опросах
    Вы не можете прикреплять файлы к сообщениям
    Вы можете скачивать файлы