Ссылка на приватное зеркало нашего сайта всего за 1$. Внимание количество ограничено!!!

2 сезон

iTunes

1 сезон

1

iTunes

iTunes

iTunes

1 сезон

RePack

30

ИГРА 18+

pack

ВАЖНО

!!Акция!!

Alien_RageХит недели

RePack

MK11
pack

Забери бонус

RePack

jed

!!Акция!!

Alien_Rage

RePack

fifa19

RePack

Assassins Creed: Odyssey

RePack

NEED FOR SPEED™ PAYBACK

4 сезон

9 сезон

Бесстыжие 9 сезон

Все сериалы

все сериалы на PB.wtf

RePack

FAR CRY 5
  

Взвод / Platoon (Оливер Стоун) [1986 г., боевик, драма, военный, BDRip 720p, Профессиональный многоголосый] pb.wtf

Взвод через торрент pb.wtf

Размер: 7.91 GB | Добавлен: 6 лет 4 мес. назад | Торрент скачан:64 раза
Скачать  

09-06-2014 16:02 Взвод Скачать торрент  

Взвод / Platoon
Год выпуска: 1986
Страна: Великобритания, США
Жанр: боевик, драма, военный
Продолжительность: 01:59:50
Перевод: Профессиональный многоголосый
Субтитры: Русские, Английские

Режиссер: Оливер Стоун
Продюссер: Арнольд Копельсон, Джон Дэйли, Дерек Гибсон
Сценарий: Оливер Стоун

Бюджет: $6 000 000
Премьера в мире: 19 декабря 1986










В ролях: Том Беренджер /Tom Berenger/, Уиллем Дефо /Willem Dafoe/, Чарли Шин /Charlie Sheen/, Форест Уитакер /Forest Whitaker/, Франческо Куинн /Francesco Quinn/, Джон К. МакГинли /John C. McGinley/, Ричард Эдсон /Richard Edson/, Кевин Диллон /Kevin Dillon/, Джонни Депп /Johnny Depp/, Тони Тодд /Tony Todd/

Описание: В сентябре 1967 года куда-то в приграничный район между Вьетнамом и Камбоджей прибыл рядовой 25-го пехотного полка Крис Тэйлор. Прибыл, чтобы своими глазами увидеть, как выглядит подлинный Ад. Не потусторонний, вымышленный, сочиненный писателями или художниками, а натуральный, здешний, вполне земной Ад, на территории которого схлестнулись друг с другом сержант Боб Барнс и сержант Илайес Гродин. Они тоже думали, что будут воевать с партизанами-вьетконговцами, но оказалось, что иногда приходится драться со своими…


Качество: BDRip 720p
Формат: MKV
Видео кодек: H.264
Аудио кодек: AC3
Видео: H.264, 1 280 x 696 (1.85:1); 23.976 fps; ~8 817 kbps; 0.413 bit/pixel
Аудио: 48 kHz, AC3 Dolby Digital, 3/2 (L,C,R,l,r) + LFE ch, ~448.00 kbps avg
Автор рипа
: GYN
Релиз от:
скриншот   скриншот   скриншот   скриншот  

Vzvod.1986.RUS.BDRip.720p.h264.AC3.-HQ-ViDEO.mkv
General
Unique ID : 171190854730464170733627984579763384832 (0x80CA28CA0D3DBA6789872B60E8CC3200)
Complete name : Vzvod.1986.RUS.BDRip.720p.h264.AC3.-HQ-ViDEO.mkv
Format : Matroska
Format version : Version 2
File size : 7.91 GiB
Duration : 1h 59mn
Overall bit rate mode : Variable
Overall bit rate : 9 453 Kbps
Movie name : Platoon (1986)
Encoded date : UTC 2011-08-24 11:58:51
Writing application : mkvmerge v3.3.0 ('Language') built on Mar 24 2010 14:59:24
Writing library : libebml v0.8.0 + libmatroska v0.9.0
Video #1
ID : 1
Format : AVC
Format/Info : Advanced Video Codec
Format profile : High@L4.1
Format settings, CABAC : Yes
Format settings, ReFrames : 6 frames
Codec ID : V_MPEG4/ISO/AVC
Duration : 1h 59mn
Bit rate mode : Variable
Bit rate : 8 817 Kbps
Maximum bit rate : 9 002 Kbps
Width : 1 280 pixels
Height : 696 pixels
Display aspect ratio : 1.85:1
Frame rate mode : Constant
Frame rate : 23.976 fps
Color space : YUV
Chroma subsampling : 4:2:0
Bit depth : 8 bits
Scan type : Progressive
Bits/(Pixel*Frame) : 0.413
Stream size : 7.38 GiB (93%)
Title : Encoded by GYN
Default : Yes
Forced : No
Audio #2
ID : 2
Format : AC-3
Format/Info : Audio Coding 3
Mode extension : CM (complete main)
Format settings, Endianness : Big
Codec ID : A_AC3
Duration : 1h 59mn
Bit rate mode : Constant
Bit rate : 448 Kbps
Channel(s) : 6 channels
Channel positions : Front: L C R, Side: L R, LFE
Sampling rate : 48.0 KHz
Bit depth : 16 bits
Compression mode : Lossy
Stream size : 384 MiB (5%)
Title : MVO
Language : Russian
Default : Yes
Forced : No
Text #3
ID : 3
Format : UTF-8
Codec ID : S_TEXT/UTF8
Codec ID/Info : UTF-8 Plain Text
Language : Russian
Default : No
Forced : No
Text #4
ID : 4
Format : UTF-8
Codec ID : S_TEXT/UTF8
Codec ID/Info : UTF-8 Plain Text
Language : English
Default : No
Forced : No

pb.wtf



Скачать Взвод через торрент http://pic.kartinco.top/images/6/ugiw9.jpg Скачать фильм Взвод через торрент бесплантно в хорошем качестве Описание: В сентябре 1967 года куда-то в приграничный район между Вьетнамом и Камбоджей прибыл рядовой 25-го пехотного полка Крис Тэйлор. ... 10 10 15
Info! Золотая раздача, скачанное не засчитывается.
Торрент: Зарегистрирован [2014-06-09 16:03] · скачан: 64 раз
Статус: √ проверено
Размер: 7.91 GB
Как cкачать? Как скачать Взвод через торрент | qTorrent

% Раздел Тема Автор DL S | L
Фильмы (HD 720p, 1080p) (48-60 fps) [ 3.25 GB ] Командир взвода / Platoon Leader [1988 военный BDRip 720p / 60 FPS Авторский ] от R.G. HD-Films slaventi-69 Скачать
1 | 0
Фильмы (Blu-ray, BD-Remux, HDDVD) [ 39.91 GB ] Взвод / Platoon [1986 военный BD Remux 1080p] [US Transfer / 4K Remastered] DUB+4xDVO+4xMVO+5xAVO+3xVO bober100 Скачать
2 | 0
Фильмы [HD 720p, 1080p] (Хороший звук DUB, MVO) [ 14.38 GB ] Взвод / Platoon [1986 военный BDRip 1080p AVO + AVO + AVO ] RodDog Скачать
1 | 0
Фильмы до 2000 г. [ 3.26 GB ] Взвод / Platoon [1986 военный BDRip-AVC Многоголосый + AVO + AVO ] capral555 Скачать
1 | 0
Фильмы до 2000 г. [ 2.08 GB ] Взвод / Platoon [1986 военный ... BDRip] mika1994 Скачать
1 | 0
Фильмы до 2000 г. [ 1.3 GB ] Взвод / Platoon [1986 военный DVDRip] feldeger Скачать
1 | 0

28-11-2019 20:33  

Отключить всю рекламу на сайте

    Дорогой пользователь! Огромная просьба, поблагодарите релизера, оцените раздачу и оставьте свои комментарий, если Вы скачали Взвод через торрент бесплатно! Внесите свою лепту в развитие PiratBit!
    Комментировать посты могут только пользователи прошедшие не сложную регистрацию
    Показать сообщения:    

    Взвод через торрент
    Скачать бесплатно Взвод
    Взвод скачать торрент
    Взвод смотреть онлайн
    Cкачать фильм Взвод бесплатно
    Взвод скачать торрент в хорошем качестве
    Взвод смотреть онлайн бесплатно в хорошем качестве


    Вы не можете начинать темы
    Вы не можете отвечать на сообщения
    Вы не можете редактировать свои сообщения
    Вы не можете удалять свои сообщения
    Вы не можете голосовать в опросах
    Вы не можете прикреплять файлы к сообщениям
    Вы можете скачивать файлы