2 сезон

iTunes

MVO

1

2 сезон

iTunes

iTunes

1 сезон

RePack

30

Новинка

ВАЖНО

ИГРА 18+

pack

RePack

MK11
pack

Легкие деньги

RePack

jed

RePack

fifa19

RePack

RDR2

RePack

NEED FOR SPEED™ PAYBACK

4 сезон

9 сезон

Бесстыжие 9 сезон

Все сериалы

все сериалы на PB.wtf

RePack

FAR CRY 5

Anonymous, добрый вечер, мы не успеваем собрать деньги на оплату серверов за декабрь и январь, помогите нам пожалуйста в это трудное время. В качестве благодарности мы отключим Вам всю рекламу на сайте (укажите свой ник в строку Ваше имя)!

×
  
Magnet ссылка

Джо / Joe (Дэвид Гордон Грин / David Gordon Green) [2013 г., Драма, криминал, BDRip-AVC] MVO [Лицензия] pb.wtf

Джо через торрент pb.wtf

Размер: 1.46 GB | Добавлен: 6 лет 7 мес. назад | Торрент скачан:1110 раз
Скачать  

09-06-2014 18:35 Джо Скачать торрент  

Джо / Joe
Год выпуска: 2013
Страна: США / Dreambridge Films, Muskat Filmed Properties LLC, Rough House (I), Worldview Entertainment
Жанр: Драма, криминал
Продолжительность: 01:57:44
Перевод: Профессиональный многоголосый [R5]
Субтитры: Русские, английские (Full + SDH + SDH-Colored)

Режиссер: Дэвид Гордон Грин / David Gordon Green



В ролях: Николас Кейдж, Тай Шеридан, Гари Поултер, Ронни Джин Блевинс, Адриэн Мишлер, Брайан Мейс, Адж Уилсон МакФол, Сью Рок, Хезер Кафка, Бренда Исаак Бут

Описание: В сонном городке на Миссисипи встретились два одиноких человека. Юный Гари поставил крест на своем будущем, не зная, как отвязаться от отца-алкоголика; бывший бандит Джо не желает вспоминать о прошлом. Неожиданно для самих себя они становятся друзьями.

Качество: BDRip-AVC
Формат: MKV
Видео кодек: H.264
Аудио кодек: AC3
Видео: 960x408 (2,40:1), 23,976 fps, 1328 Кbps, 0.141 bit/pixel
Аудио: 48 kHz, AC3 Dolby Digital, 3/2 (L,C,R,l,r) + LFE ch, 448.00 kbps

Релиз группы:
Автор рипа: potroks

Общее
Уникальный идентификатор : 233476265043417340504021900595029052517 (0xAFA5E49CA2E6FF8F8CD4F7E955738C65)
Полное имя : Dzho.2013.RUS.BDRip.x264.-HELLYWOOD.mkv
Формат : Matroska
Версия формата : Version 4 / Version 2
Размер файла : 1,46 Гбайт
Продолжительность : 1 ч. 57 м.
Общий поток : 1778 Кбит/сек
Название фильма : HELLYWOOD - rip by potroks
Дата кодирования : UTC 2014-06-09 14:55:06
Программа кодирования : mkvmerge v5.9.0 ('On The Loose') built on Dec 15 2012 16:39:58
Библиотека кодирования : libebml v1.3.0 + libmatroska v1.4.0

Видео
Идентификатор : 1
Формат : AVC
Формат/Информация : Advanced Video Codec
Профиль формата : High@L4.1
Параметр CABAC формата : Да
Параметр ReFrames формата : 12 кадров
Идентификатор кодека : V_MPEG4/ISO/AVC
Продолжительность : 1 ч. 57 м.
Битрейт : 1328 Кбит/сек
Ширина : 960 пикселей
Высота : 408 пикселей
Соотношение сторон : 2,35:1
Режим частоты кадров : Постоянный
Частота кадров : 23,976 кадра/сек
Цветовое пространство : YUV
Субдискретизация насыщенности : 4:2:0
Битовая глубина : 8 бит
Тип развёртки : Прогрессивная
Бит/(Пиксели*Кадры) : 0.141
Размер потока : 1,06 Гбайт (73%)
Заголовок : Joe
Библиотека кодирования : x264 core 130 r2273 b3065e6
Настройки программы : cabac=1 / ref=12 / deblock=1:-3:-3 / analyse=0x3:0x133 / me=umh / subme=11 / psy=1 / psy_rd=1.01:0.01 / mixed_ref=1 / me_range=48 / chroma_me=1 / trellis=2 / 8x8dct=1 / cqm=0 / deadzone=21,11 / fast_pskip=0 / chroma_qp_offset=-3 / threads=9 / lookahead_threads=6 / sliced_threads=0 / nr=0 / decimate=0 / interlaced=0 / bluray_compat=0 / constrained_intra=0 / bframes=13 / b_pyramid=2 / b_adapt=2 / b_bias=0 / direct=3 / weightb=1 / open_gop=0 / weightp=2 / keyint=250 / keyint_min=23 / scenecut=40 / intra_refresh=0 / rc_lookahead=60 / rc=2pass / mbtree=0 / bitrate=1328 / ratetol=1.0 / qcomp=0.70 / qpmin=0 / qpmax=69 / qpstep=4 / cplxblur=20.0 / qblur=0.5 / vbv_maxrate=20000 / vbv_bufsize=20000 / nal_hrd=none / ip_ratio=1.35 / pb_ratio=1.25 / aq=1:0.80
Язык : English
Default : Да
Forced : Нет

Аудио
Идентификатор : 2
Формат : AC-3
Формат/Информация : Audio Coding 3
Расширение режима : CM (complete main)
Параметр Endianness формата : Big
Идентификатор кодека : A_AC3
Продолжительность : 1 ч. 57 м.
Вид битрейта : Постоянный
Битрейт : 448 Кбит/сек
Каналы : 6 каналов
Расположение каналов : Front: L C R, Side: L R, LFE
Частота : 48,0 КГц
Битовая глубина : 16 бит
Метод сжатия : С потерями
Размер потока : 377 Мбайт (25%)
Заголовок : MVO | DD 5.1 @ 448 kbps - R5
Язык : Russian
Default : Да
Forced : Нет

Текст #1
Идентификатор : 3
Формат : UTF-8
Идентификатор кодека : S_TEXT/UTF8
Идентификатор кодека/Информация : UTF-8 Plain Text
Язык : Russian
Default : Нет
Forced : Нет

Текст #2
Идентификатор : 4
Формат : UTF-8
Идентификатор кодека : S_TEXT/UTF8
Идентификатор кодека/Информация : UTF-8 Plain Text
Заголовок : Full
Язык : English
Default : Нет
Forced : Нет

Текст #3
Идентификатор : 5
Формат : UTF-8
Идентификатор кодека : S_TEXT/UTF8
Идентификатор кодека/Информация : UTF-8 Plain Text
Заголовок : SDH
Язык : English
Default : Нет
Forced : Нет

Текст #4
Идентификатор : 6
Формат : UTF-8
Идентификатор кодека : S_TEXT/UTF8
Идентификатор кодека/Информация : UTF-8 Plain Text
Заголовок : SDH-Colored
Язык : English
Default : Нет
Forced : Нет

Меню
00:00:00.000 : en:(01)00:00:00:000
00:07:15.351 : en:(02)00:07:15:351
00:15:04.737 : en:(03)00:15:04:737
00:22:57.626 : en:(04)00:22:57:626
00:30:28.409 : en:(05)00:30:28:409
00:36:18.259 : en:(06)00:36:18:259
00:45:06.078 : en:(07)00:45:06:078
00:51:36.134 : en:(08)00:51:36:134
00:58:00.268 : en:(09)00:58:00:268
01:06:51.924 : en:(10)01:06:51:924
01:15:03.415 : en:(11)01:15:03:415
01:21:47.861 : en:(12)01:21:47:861
01:29:49.217 : en:(13)01:29:49:217
01:36:16.020 : en:(14)01:36:16:020
01:44:49.074 : en:(15)01:44:49:074
01:52:03.758 : en:(16)01:52:03:758
01:57:44.474 : en:(17)01:57:44:474

pb.wtf



Скачать Джо через торрент https://pic.kartinco.top/new/img/2014-06/09/9s1g6wefmo5yji3vkstp6zm3s.png Скачать фильм Джо через торрент бесплантно в хорошем качестве Описание: В сонном городке на Миссисипи встретились два одиноких человека. Юный Гари поставил крест на своем будущем, не зная, как ... 9.8 10 32
Info! Золотая раздача, скачанное не засчитывается.
Торрент: Зарегистрирован [2014-06-09 18:35] · скачан: 1 110 раз
Статус: √ проверено
Размер: 1.46 GB
Как cкачать? Как скачать Джо через торрент | UTorrent

% Раздел Тема Автор DL S | L
Фильмы [HD 720p, 1080p] (Хороший звук DUB, MVO) [ 8.03 GB ] Что скрывает ложь / Trespass [2011 BDRip ] ACFIORENTINA Скачать
1 | 0
T Фильмы [HD 720p, 1080p] (Хороший звук DUB, MVO) [ 4.75 GB ] G.I. Joe: Бросок кобры 2 / G.I. Joe: Retaliation [EXTENDED] [2013 BDRip 720p [ Чистый звук] Ворон Скачать
1 | 0
Фильмы 2006-2008 [ 2.18 GB ] Козырные тузы / Smokin' Aces /Джо Карнахан / Joe Carnahan) [2006 BDRip DUB + Оригинал] Aironhald Скачать
1 | 0
3D Фильмы [ 6.88 GB ] G.I. Joe: Бросок кобры 2 в 3D / G.I. Joe: Retaliation in 3D [2013 BDRip 1080p + Оригинал] Анаглиф slaventi-69 Скачать
1 | 0
T Фильмы 2011 [ 1.48 GB ] Лето резни / The Summer of Massacre [2011 BDRip] VO + Original Eng Ворон Скачать
1 | 0
Фильмы [HD 720p, 1080p] (Хороший звук DUB, MVO) [ 17.28 GB ] Первый мститель / Captain America: The First Avenger [2011 BDRip 1080p DUB + Оригинал+укр дубляж+Sub engrusukr Trava-HD Скачать
1 | 0
Фильмы 2013 [DVDrip, WEB-DLRip, HDrip] [ 1.46 GB ] G.I. Joe: Бросок кобры 2 / G.I. Joe: Retaliation [2013 HDRip ] Seedtank Скачать
1 | 0

28-11-2019 20:33  

Отключить всю рекламу на сайте

11-06-2014 12:23 Джо Скачать торрент  

Фильм про обычного деревенского мужика с шариками, большими такими. Скажите нудятина, возможно так и есть, но фильм со смыслом.pb.wtf



11-06-2014 18:32 Джо Скачать торрент  

Это шикарный фильм! Немного грустный. Как ещё хочется подобного!pb.wtf



23-06-2014 11:32 Джо Скачать торрент  

Хороший фильм .pb.wtf



    Дорогой пользователь! Огромная просьба, поблагодарите релизера, оцените раздачу и оставьте свои комментарий, если Вы скачали Джо через торрент бесплатно! Внесите свою лепту в развитие PiratBit!
    Комментировать посты могут только пользователи прошедшие не сложную регистрацию
    Показать сообщения:    

    Джо через торрент
    Скачать бесплатно Джо
    Джо скачать торрент
    Джо смотреть онлайн
    Cкачать фильм Джо бесплатно
    Джо скачать торрент в хорошем качестве
    Джо смотреть онлайн бесплатно в хорошем качестве


    Вы не можете начинать темы
    Вы не можете отвечать на сообщения
    Вы не можете редактировать свои сообщения
    Вы не можете удалять свои сообщения
    Вы не можете голосовать в опросах
    Вы не можете прикреплять файлы к сообщениям
    Вы можете скачивать файлы