Ссылка на приватное зеркало нашего сайта всего за 1$. Внимание количество ограничено!!!

2 сезон

iTunes

1 сезон

1

2 сезон

2 сезон

iTunes

1 сезон

RePack

30

Ultimate

ВАЖНО

ИГРА 18+

pack

RePack

MK11
pack

Забери бонус

RePack

jed

!!Акция!!

Alien_Rage

RePack

fifa19

RePack

Assassins Creed: Odyssey

RePack

NEED FOR SPEED™ PAYBACK

4 сезон

9 сезон

Бесстыжие 9 сезон

Все сериалы

все сериалы на PB.wtf

RePack

FAR CRY 5
  

Великолепный век / Muhtesem Yuzyil сезон 4 серия 138 (Мерт Байкал , Ягиз Алп Акайдын) [2014 г., драма, мелодрама, военный, биография, история, WEB-DLRip, Любительский одноголосый закадровый ( turok 1990 )] pb.wtf

Великолепный век через торрент pb.wtf

Размер: 1.46 GB | Добавлен: 6 лет 5 мес. назад | Торрент скачан:405 раз
Скачать  

10-06-2014 10:25 Великолепный век Скачать торрент  

Великолепный век / Muhtesem Yuzyil
Год выпуска: 2014
Страна: Турция
Жанр: драма, мелодрама, военный, биография, история
Продолжительность: 2ч. 9мин.
Перевод: Любительский одноголосый закадровый ( turok 1990 )

Режиссер: Мерт Байкал , Ягиз Алп Акайдын
Продюссер: Тимур Савчи
Сценарий: Мераль Окай

Бюджет: TRL 4 000 000
Премьера в мире: 2011

IMDB: 6.20
Кинопоиск 7.394

В ролях: Халит Эргенч, Вахиде Перчин, Нур Айсан, Мехмет Гюнсюр, Беррак Тюзюнатач, Арас Булут Ийнемли, Озан Гювен, Пелин Карахан, Мерве Болугур, Энгин Озтюрк, Тольга Сарыташ, Сарп Аккая, Мельтем Джумбул, Серкан Алтунорак, Тунджель Куртиз, Небахат Чехре, Бурак Озчивит, Окан Ялабык, Филиз Ахмет, Дениз Чакыр, Сельма Эргеч, Селим Байрактар, Гюрбей Илери.

Описание: Сериал повествует о правлении султана Сулеймана Великолепного и его страстной любви к украинской красавице Роксалане. Согласно канонам исламской веры, султан мог иметь четырех законных жен и столько наложниц, сколько сможет содержать. При этом, дети первой жены становились преемниками престола. Роксолана еще девочкой была захвачена в плен и переправлена в Стамбул, где визирь Ибрагим-паша подарил ее султану. Путем интриг, подкупа и умелого обольщения украинская красавица стала женой султана. После принятия ислама она получила имя Хюррем. Сулейман возвел Роксолану в ранг главной жены, и называл ее не иначе как «милой сердцу». Роксолана была не только искусной любовницей, но и умной, интересной собеседницей, хорошо разбирающейся в искусстве и государственных делах. Чтобы реализовать свои амбиции в султанате, Хюррем устраняла всех, кто мог ей в этом помешать. В основу сценария легло несколько исторических романов и средневековых документов.

Качество: WEB-DLRip
Формат: AVI
Видео кодек: XviD
Аудио кодек: MP3
Видео: MPEG-4, 720x400p, 25 fps, ~1500 Kbps
Аудио#1: MP3, 44.1 KHz, 2 ch, 192 kbps
скриншот   скриншот   скриншот  

Полное имя : G:\Files\Downloads\Velikolepnyj.vek.138 seria.avi
Формат : AVI
Формат/Информация : Audio Video Interleave
Размер файла : 1,46 Гбайт
Продолжительность : 2 ч. 9 м.
Общий поток : 1617 Кбит/сек
Программа кодирования : VirtualDubMod 1.5.10.3 | www.virtualdub-fr.org || (build 2550/release)
Библиотека кодирования : VirtualDub build 32842/release

Видео
Идентификатор : 0
Формат : MPEG-4 Visual
Профиль формата : Advanced Simple@L5
Параметр BVOP формата : 2
Параметр QPel формата : Нет
Параметр GMC формата : Без точки перехода
Параметр матрицы формата : Default (H.263)
Идентификатор кодека : XVID
Идентификатор кодека/Подсказка : XviD
Продолжительность : 2 ч. 9 м.
Битрейт : 1415 Кбит/сек
Ширина : 720 пикселей
Высота : 400 пикселей
Соотношение сторон : 16:9
Частота кадров : 25,000 кадров/сек
Цветовое пространство : YUV
Субдискретизация насыщенности : 4:2:0
Битовая глубина : 8 бит
Тип развёртки : Прогрессивная
Метод сжатия : С потерями
Бит/(Пиксели*Кадры) : 0.197
Размер потока : 1,28 Гбайт (88%)
Библиотека кодирования : XviD 1.2.1 (UTC 2008-12-04)

Аудио
Идентификатор : 1
Формат : MPEG Audio
Версия формата : Version 1
Профиль формата : Layer 3
Идентификатор кодека : 55
Идентификатор кодека/Подсказка : MP3
Продолжительность : 2 ч. 9 м.
Вид битрейта : Постоянный
Битрейт : 192 Кбит/сек
Каналы : 2 канала
Частота : 44,1 КГц
Метод сжатия : С потерями
Размер потока : 178 Мбайт (12%)
Выравнивание : Разделение по промежуткам
Продолжительность промежутка : 40 мс. (1,00 видеокадр)
Время предзагрузки промежутка : 500 мс.


Великолепный век скачать торрент


pb.wtf



Скачать Великолепный век через торрент http://pic.kartinco.top/images/6/ltbl3.jpg Скачать фильм Великолепный век через торрент бесплантно в хорошем качестве Описание: Сериал повествует о правлении султана Сулеймана Великолепного и его страстной любви к украинской красавице Роксалане. Согласно ... 10 10 11
Торрент: Зарегистрирован [2014-06-10 10:25] · скачан: 405 раз
Статус: √ проверено
Размер: 1.46 GB
Как cкачать? Как скачать Великолепный век через торрент | qTorrent

28-11-2019 20:33  

Отключить всю рекламу на сайте

    Дорогой пользователь! Огромная просьба, поблагодарите релизера, оцените раздачу и оставьте свои комментарий, если Вы скачали Великолепный век через торрент бесплатно! Внесите свою лепту в развитие PiratBit!
    Комментировать посты могут только пользователи прошедшие не сложную регистрацию
    Показать сообщения:    

    Великолепный век через торрент
    Скачать бесплатно Великолепный век
    Великолепный век скачать торрент
    Великолепный век смотреть онлайн
    Cкачать фильм Великолепный век бесплатно
    Великолепный век скачать торрент в хорошем качестве
    Великолепный век смотреть онлайн бесплатно в хорошем качестве


    Вы не можете начинать темы
    Вы не можете отвечать на сообщения
    Вы не можете редактировать свои сообщения
    Вы не можете удалять свои сообщения
    Вы не можете голосовать в опросах
    Вы не можете прикреплять файлы к сообщениям
    Вы можете скачивать файлы