Ссылка на приватное зеркало нашего сайта всего за 1$. Внимание количество ограничено!!!

2 сезон

iTunes

1 сезон

1

iTunes

iTunes

iTunes

1 сезон

RePack

30

ИГРА 18+

pack

ВАЖНО

!!Акция!!

Alien_RageХит недели

RePack

MK11
pack

Забери бонус

RePack

jed

!!Акция!!

Alien_Rage

RePack

fifa19

RePack

Assassins Creed: Odyssey

RePack

NEED FOR SPEED™ PAYBACK

4 сезон

9 сезон

Бесстыжие 9 сезон

Все сериалы

все сериалы на PB.wtf

RePack

FAR CRY 5
  

Чужая жизнь / Cерии:1-10 из 10 (Андрес Пуустусмаа) [2014 г., Мелодрама, SATRip] pb.wtf

Чужая жизнь через торрент pb.wtf

Размер: 5.42 GB | Добавлен: 6 лет 4 мес. назад | Торрент скачан:388 раз
Скачать  

10-06-2014 15:42 Чужая жизнь Скачать торрент  

Чужая жизнь
Год выпуска: 2014
Страна: Россия "Нон-Стоп Продакшн"
Жанр: Мелодрама
Продолжительность: 10 х ~ 00:45:00
Режиссер: Андрес Пуустусмаа
Продюссер: Екатерина Ефанова, Сергей Мелькумов, Валерий Спирин
Сценарий: Марина Малашенкова, Ольга Слепцова, Елена Шаталова
Премьера в мире: 9 июня 2014
В ролях: Янина Студилина, Анатолий Лобоцкий, Александр Туманов, Александра Назарова, Марина Яковлева, Сергей Губанов, Кристина Кузьмина, Евгений Воловенко, Леонид Окунев, Илья Алексеев, Станислав Беляев, Вера Шпак, Алексей Свиридов, Маргарита Быстрякова
Описание: Зоя Калашникова – молодая, красивая и успешная девушка. Она всего несколько лет назад приехала в Москву и уже открыла собственную фирму. Но как только Зое показалось, что все в её жизни стало налаживаться, неожиданно погибает друг детства – лётчик Сиверин, а деловой партнёр и бывший возлюбленный Юрий исчезает, оставляя девушку с огромными долгами. Зое приходится оставить всё, чего она достигла за эти годы: продать бизнес, машину, квартиру и вернуться в свою родную деревню Березовка....
Качество: SATRip
Формат: AVI
Видео: DivX 5, 720x400, 25000fps, 1 441 Kbps
Аудио: MP3, 48000Hz, stereo, 128kbps
Релиз от: DGEKIGAN






General
Format : AVI
Format/Info : Audio Video Interleave
File size : 505 MiB
Duration : 42mn 58s
Overall bit rate : 1 642 Kbps
Writing application : transcode-1.1.5

Video
ID : 0
Format : MPEG-4 Visual
Codec ID : DX50
Codec ID/Hint : DivX 5
Duration : 42mn 58s
Bit rate : 1 441 Kbps
Width : 720 pixels
Height : 400 pixels
Display aspect ratio : 16:9
Frame rate : 25.000 fps
Color space : YUV
Chroma subsampling : 4:2:0
Compression mode : Lossy
Bits/(Pixel*Frame) : 0.200
Stream size : 443 MiB (88%)

Audio
ID : 1
Format : MPEG Audio
Codec ID : 55
Codec ID/Hint : MP3
Duration : 42mn 58s
Bit rate : 128 Kbps
Channel(s) : 2 channels
Sampling rate : 48.0 KHz
Compression mode : Lossy
Stream size : 39.3 MiB (8%)
Alignment : Aligned on interleaves

Внимание!Раздача ведется путем добавления новых серий!
Добавлена 8-10 серии!Обновляемся! pb.wtf



Скачать Чужая жизнь через торрент http://pic.kartinco.top/images/6/vm91f.jpg Скачать фильм Чужая жизнь через торрент бесплантно в хорошем качестве Описание: Зоя Калашникова – молодая, красивая и успешная девушка. Она всего несколько лет назад приехала в Москву и уже открыла собственную ... 10 10 9
Торрент: Зарегистрирован [2014-06-11 18:16] · скачан: 388 раз
Статус: √ проверено
Размер: 5.42 GB
Как cкачать? Как скачать Чужая жизнь через торрент | qTorrent

28-11-2019 20:33  

Отключить всю рекламу на сайте

    Дорогой пользователь! Огромная просьба, поблагодарите релизера, оцените раздачу и оставьте свои комментарий, если Вы скачали Чужая жизнь через торрент бесплатно! Внесите свою лепту в развитие PiratBit!
    Комментировать посты могут только пользователи прошедшие не сложную регистрацию
    Показать сообщения:    

    Чужая жизнь через торрент
    Скачать бесплатно Чужая жизнь
    Чужая жизнь скачать торрент
    Чужая жизнь смотреть онлайн
    Cкачать фильм Чужая жизнь бесплатно
    Чужая жизнь скачать торрент в хорошем качестве
    Чужая жизнь смотреть онлайн бесплатно в хорошем качестве


    Вы не можете начинать темы
    Вы не можете отвечать на сообщения
    Вы не можете редактировать свои сообщения
    Вы не можете удалять свои сообщения
    Вы не можете голосовать в опросах
    Вы не можете прикреплять файлы к сообщениям
    Вы можете скачивать файлы