Ссылка на приватное зеркало нашего сайта всего за 1$. Внимание количество ограничено!!!

2 сезон

iTunes

1 сезон

1

2 сезон

2 сезон

iTunes

1 сезон

RePack

30

Новинка

ВАЖНО

ИГРА 18+

pack

RePack

MK11
pack

Забери бонус

RePack

jed

!!Акция!!

Alien_Rage

RePack

fifa19

RePack

Assassins Creed: Odyssey

RePack

NEED FOR SPEED™ PAYBACK

4 сезон

9 сезон

Бесстыжие 9 сезон

Все сериалы

все сериалы на PB.wtf

RePack

FAR CRY 5
  

Любовница Дьявола: Унесенные страстью / Шлюха дьявола / The Devil's Whore / The Devil's Mistress / Серии:1-4 из 4 (Марк Манден) [2008 г., Драма, военный, история, DVDRip] MVO pb.wtf

Любовница Дьявола: Унесенные страстью через торрент pb.wtf

Размер: 2.91 GB | Добавлен: 6 лет 5 мес. назад | Торрент скачан:139 раз
Скачать  

10-06-2014 19:15 Любовница Дьявола: Унесенные страстью Скачать торрент  

Любовница Дьявола: Унесенные страстью / Шлюха дьявола / The Devil's Whore / The Devil's Mistress
Год выпуска: 2008
Страна: США Великобритания HBO Films, Company Pictures
Жанр: Драма, военный, история
Продолжительность: 01:01:03 + 00:51:55 + 00:51:23 + 00:50:10
Перевод: Профессиональный многоголосый
Режиссер: Марк Манден
Продюссер: Джастин Бодл, Мартин Брант, Джордж Фабер
Сценарий: Мартин Брант, Питер Флэннери

Премьера в мире: 19 ноября 2008


В ролях: Андреа Райзборо, Доминик Уэст, Том Гудман-Хилл, Джон Симм, Максин Пик, Майкл Фассбендер, Тим МакИннерни, Питер Капальди, Роб ван Вуурен, Адриан Шиллер
Описание: Действие минисериала происходит в Англии середины 17 века, когда к власти пришел Оливер Кромвель, а страну охватила гражданская война. На фоне этих событий разворачивается история юной Анжелики Фэншоу, вымышленной героини, судьба которой переплетается с настоящими историческими персонажами.
Качество: DVDRip
Формат: AVI
Видео кодек: XviD
Аудио кодек: AC3
Видео: Xvid 704x400, 25000fps, 1 182 Kbps
Аудио: Dolby AC3, 48000Hz, 6ch, 448kbps
Релиз от: tеko





General
Format : AVI
Format/Info : Audio Video Interleave
File size : 745 MiB
Duration : 1h 1mn
Overall bit rate : 1 707 Kbps
Writing application : VirtualDubMod 1.5.10.3 | (build 2550/release)
Writing library : VirtualDubMod build 2550/release

Video
ID : 0
Format : MPEG-4 Visual
Codec ID : XVID
Codec ID/Hint : XviD
Duration : 1h 1mn
Bit rate : 1 182 Kbps
Width : 704 pixels
Height : 400 pixels
Display aspect ratio : 16:9
Frame rate : 25.000 fps
Color space : YUV
Chroma subsampling : 4:2:0
Compression mode : Lossy
Bits/(Pixel*Frame) : 0.168
Stream size : 516 MiB (69%)

Audio
ID : 1
Format : AC-3
Format/Info : Audio Coding 3
Codec ID : 2000
Duration : 1h 1mn
Bit rate mode : Constant
Bit rate : 448 Kbps
Channel(s) : 6 channels
Sampling rate : 48.0 KHz
Compression mode : Lossy
Stream size : 196 MiB (26%)
Alignment : Aligned on interleaves

pb.wtf



Скачать Любовница Дьявола: Унесенные страстью через торрент http://pic.kartinco.top/images/6/6r29q.jpg Скачать фильм Любовница Дьявола: Унесенные страстью через торрент бесплантно в хорошем качестве Описание: Действие минисериала происходит в Англии середины 17 века, когда к власти пришел Оливер Кромвель, а страну охватила гражданская ... 10 10 3
Торрент: Зарегистрирован [2014-06-10 19:15] · скачан: 139 раз
Статус: √ проверено
Размер: 2.91 GB
Как cкачать? Как скачать Любовница Дьявола: Унесенные страстью через торрент | qTorrent

28-11-2019 20:33  

Отключить всю рекламу на сайте

    Дорогой пользователь! Огромная просьба, поблагодарите релизера, оцените раздачу и оставьте свои комментарий, если Вы скачали Любовница Дьявола: Унесенные страстью через торрент бесплатно! Внесите свою лепту в развитие PiratBit!
    Комментировать посты могут только пользователи прошедшие не сложную регистрацию
    Показать сообщения:    

    Любовница Дьявола: Унесенные страстью через торрент
    Скачать бесплатно Любовница Дьявола: Унесенные страстью
    Любовница Дьявола: Унесенные страстью скачать торрент
    Любовница Дьявола: Унесенные страстью смотреть онлайн
    Cкачать фильм Любовница Дьявола: Унесенные страстью бесплатно
    Любовница Дьявола: Унесенные страстью скачать торрент в хорошем качестве
    Любовница Дьявола: Унесенные страстью смотреть онлайн бесплатно в хорошем качестве


    Вы не можете начинать темы
    Вы не можете отвечать на сообщения
    Вы не можете редактировать свои сообщения
    Вы не можете удалять свои сообщения
    Вы не можете голосовать в опросах
    Вы не можете прикреплять файлы к сообщениям
    Вы можете скачивать файлы