1 сезон

1 сезон

iTunes

1

КиноПоиск HD

Кинопоиск HD

iTunes

13

1 сезон

RePack

30

Новинка

ВАЖНО

ИГРА 18+

pack

RePack

MK11
pack

Легкие деньги

RePack

jed

RePack

fifa19

RePack

RDR2

RePack

NEED FOR SPEED™ PAYBACK

4 сезон

9 сезон

Бесстыжие 9 сезон

Все сериалы

все сериалы на PB.wtf

RePack

FAR CRY 5
  
Magnet ссылка

Человек-паук / Spider-Man (Сэм Рэйми) [2002 г., Фантастика, боевик, приключения, HDRip, Дубляж, Лицензия] от DHT-Movies pb.wtf

Человек-паук через торрент pb.wtf

Размер: 3.21 GB | Добавлен: 6 лет 10 мес. назад | Торрент скачан:117 раз
Скачать  

10-06-2014 19:39 Человек-паук Скачать торрент  

Человек-паук / Spider-ManГод выпуска: 2002
Страна: США
Жанр: Фантастика, боевик, приключения
Продолжительность: 02:01:13
Перевод: Дубляж, Лицензия
Субтитры: Субтитры: Русские (softsub (SRT))

Режиссер: Сэм Рэйми
Продюссер: Ави Арад, Йен Брайс, Стэн Ли
Сценарий: Дэвид Кепп, Стэн Ли, Стив Дитко

Бюджет: $139 000 000
Премьера в мире: 30 апреля 2002



В ролях: Тоби Магуайр, Уиллем Дефо, Кирстен Данст, Джеймс Франко, Клифф Робертсон, Розмари Харрис, Дж.К. Симмонс, Джо Манганьелло, Джерри Бекер, Билл Нанн

Описание: Питер - скромный, талантливый старшеклассник, заканчивает школу. Он кажется настолько нелепым и неуклюжим, что его совсем не страшно обидеть. Но однажды, во время школьной экскурсии в местный университет, Питера укусил паук. Это был один из подопытных супер-пауков, с изменённой ДНК. Домой он едва пришёл и, упав на кровать, потерял сознание. А когда очнулся, почувствовал себя необычайно бодрым и, сразу одев по привычке очки, обнаружил, что ничего не видит... Зато без них он видел великолепно! А мышцы! Он с наслаждением разглядывал в зеркале бицепсы и кубики, украшавшие теперь его торс. И это были ещё не все изменения, которые он в себе открыл после укуса...

Качество: HDRip-AVC | BDRip 1080p
Формат: MKV
Видео кодек: H.264
Аудио кодек: AC3
Видео: 1024 x 552 (1,85:1), 23,976 fps, AVC (х264) High@L4.1, ~3400 Kbps, 0.251 bit/pixel
Аудио: 48 kHz, AC3 Dolby Digital, 3/2 (L,C,R,l,r) + LFE ch, ~ 384 kbps avg


Релиз группа: | by Dean24
скриншот  скриншот  скриншот  
скриншот  скриншот  скриншот  





avs [info]: 1024x552p 1:1 @ 2500000/104271 fps (cfr)
x264 [info]: using SAR=1/1
x264 [info]: using cpu capabilities: MMX2 SSE2Fast SSSE3 Cache64 SlowShuffle
x264 [info]: profile High, level 4.0
x264 [info]: frame I:1519 Avg QP:15.32 size:108549
x264 [info]: frame P:44278 Avg QP:18.19 size: 34394
x264 [info]: frame B:128581 Avg QP:20.97 size: 10907
x264 [info]: consecutive B-frames: 4.1% 4.9% 10.2% 32.5% 15.9% 21.6% 3.9% 4.9% 1.0% 0.8% 0.2%
x264 [info]: mb I I16..4: 7.8% 66.3% 25.9%
x264 [info]: mb P I16..4: 2.0% 14.9% 2.5% P16..4: 35.1% 22.4% 16.0% 1.2% 0.4% skip: 5.5%
x264 [info]: mb B I16..4: 0.2% 1.8% 0.3% B16..8: 39.7% 12.7% 3.7% direct: 7.3% skip:34.4% L0:41.6% L1:42.9% BI:15.5%
x264 [info]: 8x8 transform intra:76.2% inter:60.2%
x264 [info]: direct mvs spatial:98.8% temporal:1.2%
x264 [info]: coded y,uvDC,uvAC intra: 86.8% 78.7% 51.9% inter: 32.3% 20.6% 3.2%
x264 [info]: i16 v,h,dc,p: 54% 12% 12% 23%
x264 [info]: i8 v,h,dc,ddl,ddr,vr,hd,vl,hu: 13% 9% 9% 9% 13% 12% 12% 11% 12%
x264 [info]: i4 v,h,dc,ddl,ddr,vr,hd,vl,hu: 14% 8% 5% 9% 14% 14% 13% 11% 12%
x264 [info]: i8c dc,h,v,p: 42% 24% 20% 14%
x264 [info]: Weighted P-Frames: Y:5.4% UV:2.2%
x264 [info]: ref P L0: 46.3% 12.5% 17.3% 5.8% 4.7% 3.0% 2.8% 1.5% 1.4% 1.1% 1.1% 0.9% 0.9% 0.8% 0.2% 0.0%
x264 [info]: ref B L0: 76.5% 10.5% 4.4% 2.2% 1.6% 1.3% 1.0% 0.6% 0.5% 0.5% 0.4% 0.3% 0.1%
x264 [info]: ref B L1: 93.6% 6.4%
x264 [info]: kb/s:3399.14

x264 [total]: encoded 174378 frames, 1.24 fps, 3399.14 kb/s
______________

Общее:
Уникальный идентификатор: 241098687955260709676000193582039184893 (0xB561EB13A5D3D44AA1C7FB8A25DE35FD)
Полное имя: D:\Для сайта\Rip's\Spider-Man_HDRip-AVC_ot_DHT-Movies.mkv
Формат: Matroska
Версия формата: Version 4 / Version 2
Размер файла: 3,21 Гбайт
Продолжительность: 2 ч. 1 м.
Общий поток: 3786 Кбит/сек
Название фильма: Spider-Man_HDRip-AVC_ot_DHT-Movies
Дата кодирования: UTC 2014-06-08 14:57:34
Программа кодирования: mkvmerge v6.6.0 ('The Edge Of The In Between') built on Dec 1 2013 17:55:00
Библиотека кодирования: libebml v1.3.0 + libmatroska v1.4.1

Видео:
Идентификатор: 1
Формат: AVC
Формат/Информация: Advanced Video Codec
Профиль формата: High@L4.1
Параметр CABAC формата: Да
Параметр ReFrames формата: 14 кадров
Идентификатор кодека: V_MPEG4/ISO/AVC
Продолжительность: 2 ч. 1 м.
Битрейт: 3400 Кбит/сек
Ширина: 1024 пикселя
Высота: 552 пикселя
Соотношение сторон: 1,85:1
Режим частоты кадров: Постоянный
Частота кадров: 23,976 кадра/сек
Цветовое пространство: YUV
Субдискретизация насыщенности: 4:2:0
Битовая глубина: 8 бит
Тип развёртки: Прогрессивная
Бит/(Пиксели*Кадры): 0.251
Размер потока: 2,82 Гбайт (88%)
Библиотека кодирования: x264 core 130 r2273 b3065e6
Настройки программы: cabac=1 / ref=14 / deblock=1:-2:-1 / analyse=0x3:0x133 / me=umh / subme=10 / psy=1 / psy_rd=0.97:0.10 / mixed_ref=1 / me_range=32 / chroma_me=1 / trellis=2 / 8x8dct=1 / cqm=0 / deadzone=21,11 / fast_pskip=0 / chroma_qp_offset=-3 / threads=3 / lookahead_threads=1 / sliced_threads=0 / nr=0 / decimate=1 / interlaced=0 / bluray_compat=0 / constrained_intra=0 / bframes=10 / b_pyramid=2 / b_adapt=2 / b_bias=0 / direct=3 / weightb=1 / open_gop=0 / weightp=2 / keyint=240 / keyint_min=23 / scenecut=40 / intra_refresh=0 / rc_lookahead=60 / rc=2pass / mbtree=1 / bitrate=3400 / ratetol=1.0 / qcomp=0.60 / qpmin=0 / qpmax=69 / qpstep=4 / cplxblur=20.0 / qblur=0.5 / ip_ratio=1.40 / aq=1:1.00
Default: Да
Forced: Нет

Аудио:
Идентификатор: 2
Формат: AC-3
Формат/Информация: Audio Coding 3
Расширение режима: CM (complete main)
Параметр Endianness формата: Big
Идентификатор кодека: A_AC3
Продолжительность: 2 ч. 1 м.
Вид битрейта: Постоянный
Битрейт: 384 Кбит/сек
Каналы: 6 каналов
Расположение каналов: Front: L C R, Side: L R, LFE
Частота: 48,0 КГц
Битовая глубина: 16 бит
Метод сжатия: С потерями
Размер потока: 333 Мбайт (10%)
Default: Да
Forced: Нет

Текст:
Идентификатор: 3
Формат: UTF-8
Идентификатор кодека: S_TEXT/UTF8
Идентификатор кодека/Информация: UTF-8 Plain Text
Язык: Russian
Default: Нет
Forced: Нет

pb.wtf



Скачать Человек-паук через торрент http://i61.fastpic.ru/big/2014/0608/b4/9b10a957405baf82ad39628f928e15b4.png Скачать фильм Человек-паук через торрент бесплантно в хорошем качестве Описание: Питер - скромный, талантливый старшеклассник, заканчивает школу. Он кажется настолько нелепым и неуклюжим, что его совсем не ... 9 10 9
Info! Золотая раздача, скачанное не засчитывается.
Торрент: Зарегистрирован [2014-06-10 19:39] · скачан: 117 раз
Статус: √ проверено
Размер: 3.21 GB
Как cкачать? Как скачать Человек-паук через торрент | UTorrent

% Раздел Тема Автор DL S | L
Фильмы 2001-2005 [ 3.52 GB ] Человек-паук 2 / Spider-Man 2 [2004 HDRip-AVC ] от DHT-Movies Dean24 Скачать
1 | 0

28-11-2019 20:33  

Отключить всю рекламу на сайте

    Дорогой пользователь! Огромная просьба, поблагодарите релизера, оцените раздачу и оставьте свои комментарий, если Вы скачали Человек-паук через торрент бесплатно! Внесите свою лепту в развитие PiratBit!
    Комментировать посты могут только пользователи прошедшие не сложную регистрацию
    Показать сообщения:    

    Человек-паук через торрент
    Скачать бесплатно Человек-паук
    Человек-паук скачать торрент
    Человек-паук смотреть онлайн
    Cкачать фильм Человек-паук бесплатно
    Человек-паук скачать торрент в хорошем качестве
    Человек-паук смотреть онлайн бесплатно в хорошем качестве


    Вы не можете начинать темы
    Вы не можете отвечать на сообщения
    Вы не можете редактировать свои сообщения
    Вы не можете удалять свои сообщения
    Вы не можете голосовать в опросах
    Вы не можете прикреплять файлы к сообщениям
    Вы можете скачивать файлы