новый адрес
Мега распродажа FORZA HORIZON 4 ULTIMATE+ВСЕ DLC+ОНЛАЙН всего за 499р. 349 руб. (супер цена). Внимание количество ограничено!!!

iTunes

1+1

iTunes

мы

iTunes

1

iTunes

Чернобыль

iTunes

Ральф против интернета

Лицензия

ПШазам

Лицензия

Игра престолов

Лицензия

30
pack

ВАЖНО

!!Акция!!

Alien_RageХит недели

RePack

Resident Evil 21

ИГРА 18+

pack

RePack

Metro:Exodus

!!Акция!!

Alien_Rage

RePack

fifa19

RePack

Assassins Creed: Odyssey

RePack

NEED FOR SPEED™ PAYBACK

3 сезон

9 сезон

Бесстыжие 9 сезон

Все сериалы

все сериалы на PB.wtf

RePack

FAR CRY 5
Ребята, катастрофически не хватает 1900р. для оплаты серверов за Октябрь (всвязи с блокировками трафик упал в 3 раза), 1-2р., выручайте.
  

Оранжевый — хит сезона / Orange Is the New Black / Сезон: 2 / Серии 1-13 из 13 (Майкл Трим / Michael Trim, Эндрю МакКарти / Andrew McCarthy, Фил Абрахам / Phil Abraham) [ 2014 , США , драма, комедия, криминал , WEBRip ] MVO (NewStudio) pb.wtf

Оранжевый — хит сезона через торрент pb.wtf

Размер: 9.28 GB | Добавлен: 5 лет 3 мес. назад | Торрент скачан:45 раз
Скачать  

11-06-2014 04:54 Оранжевый — хит сезона Скачать торрент  

Оранжевый — хит сезона / Orange Is the New Black«Every sentence is a story»
Год выпуска: 2014
Страна: США
Жанр: драма, комедия,
Продолжительность: ~00:56:26 (Серия)
Перевод: Профессиональный (многоголосый, )(NewStudio)
Субтитры: Нет
Режиссер: Майкл Трим / Michael Trim, Эндрю МакКарти / Andrew McCarthy, Фил Абрахам / Phil Abraham
Сценарий: Керман / Piper Kerman, Гари Леннон / Gary Lennon, Дженджи Коэн / Jenji Kohan, Сиан Хедер / Sian Heder, Хесс / Sara Hess
Продюсер: Дженджи Коэн / Jenji Kohan, Херрманн / Tara Herrmann, Лиз Фридман / Liz Friedman, Марк А. Берли / Mark A. Burley, Хесс / Sara Hess
Оператор: Чернюл / Vanja Cernjul, Ярон Орбах / Yaron Orbach
: Scott Doherty, Джей / Brandon Jay, Гвендолин Санфорд / Gwendolyn Sanford
В ролях:
Тейлор Шиллинг (Piper Chapman), Даниэль Брукс (Tasha «Taystee» Jefferson), Джоэль Гарлэнд (S. O'Neill), Тэрин Мэннинг (Tiffany «Pennsatucky» Doggett), Эмма Майлс (Leanne Taylor), Пиментел (Maria Ruiz), Дайан Герерро (Maritza), Эбигейл Сэвадж (Gina Murphy), Лора Припон (Alex Vause), Фостер (Eliqua Maxwell), Алисия Райнер (Natalie Figueroa), Майкл Харни (Sam Healy)
Описание:
Чепмен - обычная жительница Коннектикута. Она любит свою благополучную жизнь и все её приятные мелочи. Душ по утрам, красивый завтрак, любовью. Но случается так, что благодаря своему мимолетному увлечению крупным наркоторговцем, оказывается заключенной в тюрьму на долгие пятнадцать месяцев. Отныне ей необходимо не только привыкнуть к новому окружению, но и просто - выжить.
Рейтинг
kinopoisk.ru: 8.003 (2948)
imdb.com: 8.50 (64 429)
Качество: WEBRip
Формат: AVI
кодек: XviD
кодек: MP3
: 1462 /сек, 720*400 (16:9), в 23,976 кадра/сек, MPEG-4 Visual (XviD)
№1: Русский 128 /сек, 48,0 КГц, 2 канала, MPEG Audio (MP3)
№2: Английский 128 /сек, 48,0 КГц, 2 канала, MPEG Audio (MP3) Раздача ведётся путём добавления новых серийДобавлена 13 заключительная серия (18.07.2014)Просьба перекачать торрент

Внимание! Раздача ведётся путём добавления новых ; при добавлении создаётся новый торрент. начать докачку новой серии, пользователям необходимо сделать следующее:
(1) остановить ,
(2) удалить старый торрент у себя из клиента (старые серии удалять не надо),
(3) скачать новый торрент и запустить его у себя в клиенте старого, при указать клиенту путь в старую папку куда и должно происходить новых .
Ваш при должен произвести хеширование (проверку) старой папки (если не производит сам - помогите ему сделать это), и будет докачивать только те серии которых у вас ещё нет. Старые серии при не удаляются, а продолжают раздаваться!
Eсли вы уже удалили старые серии, то предотвратить повторную закачку старых можно, отжав галочку в соответствующих местах при запуске нового торрента. По возможности, желательно не удалять старые серии как можно дольше релизёр не столько продолжал старые серии, а смог сконцентрироваться на новых.

Общее
Полное имя : D:\Фильмы\Оранжевый - хит (Сезон 2)\Orange.Is.the.New.Black.s02e01.WEBRip.NewStudio.TV.avi
Формат : AVI
Формат/Информация : Audio Video Interleave
Размер файла : 699 Мбайт
Продолжительность : 56 м.
Общий поток : 1732 /сек
Программа кодирования : VirtualDubMod 1.5.10.2 (build 2540/release)
Библиотека кодирования : VirtualDubMod build 2540/release

: 0
Формат : MPEG-4 Visual
Профиль : Advanced Simple@L5
Параметр BVOP : 2
Параметр QPel : Нет
Параметр GMC : Без точки перехода
Параметр матрицы : Default (MPEG)
кодека : XVID
кодека/ : XviD
Продолжительность : 56 м.
Битрейт : 1462 /сек
Ширина : 720 пикселей
Высота : 400 пикселей
Соотношение сторон : 16:9
Частота кадров : 23,976 кадра/сек
Цветовое пространство : YUV
насыщенности : 4:2:0
Битовая : 8 бит
Тип развёртки : Прогрессивная
Метод сжатия : С потерями
Бит/(Пиксели*Кадры) : 0.212
Размер потока : 590 Мбайт (84%)
Библиотека кодирования : XviD 64

#1
: 1
Формат : MPEG Audio
Версия : Version 1
Профиль : Layer 3
Режим : Joint stereo
Расширение : MS Stereo
кодека : 55
кодека/ : MP3
Продолжительность : 56 м.
Вид битрейта :
Битрейт : 128 /сек
Каналы : 2 канала
Частота : 48,0 КГц
Метод сжатия : С потерями
Размер потока : 51,7 Мбайт (7%)
Выравнивание : Соединение по промежуткам
Продолжительность промежутка : 42 мс. (1,00 видеокадр)
Время предзагрузки промежутка : 504 мс.

#2
: 2
Формат : MPEG Audio
Версия : Version 1
Профиль : Layer 3
Режим : Joint stereo
Расширение : MS Stereo
кодека : 55
кодека/ : MP3
Продолжительность : 56 м.
Вид битрейта :
Битрейт : 128 /сек
Каналы : 2 канала
Частота : 48,0 КГц
Метод сжатия : С потерями
Размер потока : 51,7 Мбайт (7%)
Выравнивание : Соединение по промежуткам
Продолжительность промежутка : 42 мс. (1,00 видеокадр)
Время предзагрузки промежутка : 504 мс.

скриншот   скриншот   скриншот   скриншот   скриншот   скриншот   скриншот   скриншот   скриншот   скриншот  
pb.wtf



Скачать Оранжевый — хит сезона через торрент http://pic.kartinco.top/images/6/2abfw.jpg Скачать фильм Оранжевый — хит сезона через торрент бесплантно в хорошем качестве Описание: Чепмен - обычная жительница Коннектикута. Она любит свою благополучную жизнь и все её приятные мелочи. Душ по утрам, красивый ... 9.1 10 18
Info! Золотая раздача, скачанное не засчитывается.
Торрент: Зарегистрирован [2014-07-19 02:32] · скачан: 45 раз
Статус: √ проверено
Размер: 9.28 GB
Как cкачать? Как скачать Оранжевый — хит сезона через торрент | qTorrent

% Раздел Тема Автор DL S | L
Зарубежные сериалы [ 55.9 GB ] Оранжевый - хит сезона / Orange Is the New Black / Сезон: 2 / Серии: 1-13 из 13 [2019 BDRip 1080p] MVO [TVShows] bober100 Скачать
1 | 0


Последний раз редактировалось: GEKADOL (2014-07-19 02:31), всего редактировалось 14 раз(а)


>> Регистрируемся здесь <<






Отзывы и комментарии о схеме читаем и пишем здесь: ---> Отзывы и комментарии о схеме

Новые благодарочки в телеграм довольных пользователей:
скриншот   скриншот   скриншот   скриншот   скриншот

13-06-2014 14:26 Оранжевый — хит сезона Скачать торрент  

На 50% стало..........pb.wtf



14-06-2014 14:53 Оранжевый — хит сезона Скачать торрент  

GEKADOL писал(а):

Качество: WEB-DLRip

WEBRippb.wtf



17-06-2014 03:44 Оранжевый — хит сезона Скачать торрент  

Глюк каой то!!! Попозже переделаю! Все было залито и скрины и постер! pb.wtf



27-06-2014 20:01 Оранжевый — хит сезона Скачать торрент  

ээээмммм,есть ктооооо?где раздающий?????pb.wtf



29-06-2014 04:00 Оранжевый — хит сезона Скачать торрент  

тут нет первого сезона.кто смотрел?pb.wtf



    Дорогой пользователь! Огромная просьба, поблагодарите релизера, оцените раздачу и оставьте свои комментарий, если Вы скачали Оранжевый — хит сезона через торрент бесплатно! Внесите свою лепту в развитие PiratBit!
    Комментировать посты могут только пользователи прошедшие не сложную регистрацию
    Показать сообщения:    

    Оранжевый — хит сезона через торрент
    Скачать бесплатно Оранжевый — хит сезона
    Оранжевый — хит сезона скачать торрент
    Оранжевый — хит сезона смотреть онлайн
    Cкачать фильм Оранжевый — хит сезона бесплатно
    Оранжевый — хит сезона скачать торрент в хорошем качестве
    Оранжевый — хит сезона смотреть онлайн бесплатно в хорошем качестве


    Вы не можете начинать темы
    Вы не можете отвечать на сообщения
    Вы не можете редактировать свои сообщения
    Вы не можете удалять свои сообщения
    Вы не можете голосовать в опросах
    Вы не можете прикреплять файлы к сообщениям
    Вы можете скачивать файлы